Молчание / Тихоня / Sessiz / Be Deng / Silent (Л. Резан Ешилбаш / L. Rezan Yesilbas) [2012, Турция, короткий метр, драма, DVDRip] Sub Rus


Статистика раздачи [Обновить пиров]
Размер:  192 MB   |    Зарегистрирован:  1 год 2 месяца   |    Скачан:  0 раз

Полного источника не было: Никогда

 
   
 
 
 

[Цитировать]

Молчание / Sessiz / Be Deng-Страна: Турция
Жанр: короткий метр, драма
Год выпуска: 2012
Продолжительность: 00:14:14-Перевод: Субтитры by sonnyb
Cубтитры: русские softsub (SRT), английские (hard)
Оригинальная аудиодорожка: курдский и турецкий-Режиссер: Л. Резан Ешилбаш / L. Rezan Yesilbas
В ролях: Бельчим Билгин, Сем Бендер-Описание: 1984 год. Зейнеп живет в Диярбакыре с тремя детьми. И кажется, что она занята своими делами. Зейнеп собирается навестить мужа в тюрьме...-Доп. информация: IMDb: 6,8/10 from 56 users-Каннский кинофестиваль, 2012 год
Золотая пальмовая ветвь за лучший короткометражный фильм-Качество видео: DVDRip
Формат видео: AVI
Видео: 720x400 (1.80:1), 25 fps, XviD build 50 ~1680 kbps avg, 0.23 bit/pixel
Аудио: 48 kHz, AC3 Dolby Digital, 2/0 (L,R) ch, ~192 kbps

Пример субтитров

1
00:00:17,640 --> 00:00:20,599
~ Молчание ~
2
00:00:20,720 --> 00:00:23,559
Диярбакыр, 1984 год
3
00:02:09,320 --> 00:02:13,319
Говорит по-курдски:
Иди сюда, милая, иди.
4
00:02:15,000 --> 00:02:17,519
Не знаю, как всё закончится...
5
00:02:18,080 --> 00:02:20,599
Я должна принести ему несколько вещей.
6
00:02:22,320 --> 00:02:25,799
Иногда я говорю себе, что когда-нибудь всё это закончится.
7
00:02:29,240 --> 00:02:32,719
Они не разрешают ничего проносить внутрь,
8
00:02:32,720 --> 00:02:35,199
даже и пару носков.
9
00:02:37,160 --> 00:02:39,679
Как и не разрешают там говорить по-курдски.
10
00:02:39,680 --> 00:02:41,239
Они совсем обезумели!
11
00:05:51,440 --> 00:05:53,439
Говорит по-турецки:
Граждане! Идите сюда и встаньте в очередь справа.
12
00:05:53,440 --> 00:05:54,919
Убедитесь, что удостоверения личности при вас.
13
00:05:55,320 --> 00:05:58,439
В одну линию и быстро!
14
00:06:01,520 --> 00:06:05,399
Оставьте всё, что у вас в руках здесь и проходите внутрь.

MediaInfo

Формат : AVI
Формат/Информация : Audio Video Interleave
Размер файла : 192 Мбайт
Продолжительность : 14 м.
Общий поток : 1883 Кбит/сек
Программа кодирования : VirtualDubMod 1.5.10.3 | www.virtualdub-fr.org || (build 2550/release)
Библиотека кодирования : VirtualDubMod build 2550/release
Видео
Идентификатор : 0
Формат : MPEG-4 Visual
Профиль формата : Advanced Simple@L5
Параметр BVOP формата : 2
Параметр QPel формата : Нет
Параметр GMC формата : Без точки перехода
Параметр матрицы формата : Default (MPEG)
Идентификатор кодека : XVID
Идентификатор кодека/Подсказка : XviD
Продолжительность : 14 м.
Битрейт : 1681 Кбит/сек
Ширина : 720 пикс.
Высота : 400 пикс.
Соотношение сторон : 16:9
Частота кадров : 25,000 кадр/сек
Цветовое пространство : YUV
Подвыборка цветности : 4:2:0
Битовая глубина : 8 бит
Тип развёртки : Прогрессивная
Метод сжатия : С потерями
Бит/(Пиксели*Кадры) : 0.233
Размер потока : 171 Мбайт (89%)
Библиотека кодирования : XviD 1.2.1 (UTC 2008-12-04)
Аудио
Идентификатор : 1
Формат : AC-3
Формат/Информация : Audio Coding 3
Расширение режима : CM (complete main)
Идентификатор кодека : 2000
Продолжительность : 14 м.
Вид битрейта : Постоянный
Битрейт : 192 Кбит/сек
Каналы : 2 канала
Расположение каналов : Front: L R
Частота : 48,0 КГц
Битовая глубина : 16 бит
Метод сжатия : С потерями
Размер потока : 19,5 Мбайт (10%)
Выравнивание : Разделение по промежуткам
Продолжительность промежутка : 40 мс. (1,00 видеокадр)
Время предзагрузки промежутка : 500 ms

Скриншоты

[teatrix.ru].t4106.torrent 
Торрент: Зарегистрирован [ 2015-10-07 12:13 ] · E643EC6BD5B213AF66D57D8DC1FFC9B7AFE98FD2

Скачать .torrent

Скачать

16 KB

Статус: проверено
Скачан: 0 раз
Размер: 192 MB
terms.php



Быстрый ответ

Имя:

      
Для отправки сообщений необходимо включить JavaScript
Показать сообщения:    

Текущее время: 09-Дек 08:47

Часовой пояс: UTC + 3


Вы можете начинать темы
Вы можете отвечать на сообщения
Вы не можете редактировать свои сообщения
Вы не можете удалять свои сообщения
Вы не можете голосовать в опросах
Вы не можете прикреплять файлы к сообщениям
Вы можете скачивать файлы