Слеза призрака / La larme du fantome / La larme du fantôme (Флориан Киттар / Florian Quittard) [2011, Франция, мистика, философская драма, короткий метр, DVB] Original (Fre) + Sub (rus)


Статистика раздачи [Обновить пиров]
Размер:  156 MB   |    Зарегистрирован:  1 год 1 месяц   |    Скачан:  0 раз

Полного источника не было: Никогда

 
   
 
 
 

[Цитировать]

Слеза призрака
La larme du fantôme- Страна: Франция
Жанр: мистика, философская драма, короткий метр
Год выпуска: 2011
Продолжительность: 00:07:05
Перевод: Субтитры (перевод И. Рыбкиной, Éclair Group)
Cубтитры: русские
Оригинальная аудиодорожка: французский
Режиссер: Флориан Киттар / Florian Quittard
В ролях: Рюфюс / Rufus (L'homme), Фредерик Дарье / Frédéric Darie (Le père), Манеска Де Тернэ / Manesca De Ternay (La mère)
Описание: Изумительно эмоционально окрашенный фильм о жизни и смерти, памяти о близких, печали и нежной грусти. После смерти отца уже немолодой мужчина возвращается в дом своего детства, где ему является призрак отца...
Доп. информация: Собственная запись со спутника (канал TV5MONDE).
Участник Aubagne Film Festival 2012; Festival International du Film d’Aubagne 2012.
Информация: http://www.imdb.com/title/tt2371280/
Сэмпл: http://multi-up.com/848150
Качество видео: DVB
Формат видео: MPEG-PS (См. при проблемах с просмотром видео)
Видео: MPEG Video 2, 720x576@1024x576 (16:9), 25 fps, ~2830 kbps avg, 0.273 bit/pixel
Аудио: Французский (48 kHz, MPEG Audio 2, 2 ch, ~192.00 kbps avg)
Формат субтитров: hardsub (неотключаемые)

MediaInfo

Полное имя : H:\My Torrents\[apreder]MINI_MOVIE_008\[apreder]MM_La_larme_du_fantome(2011)DVB.mpgФормат : MPEG-PSРазмер файла : 156 МбайтПродолжительность : 7 м. 5 с.Режим общего битрейта : ПеременныйОбщий поток : 3083 Кбит/сек
ВидеоИдентификатор : 224 (0xE0)Формат : MPEG VideoВерсия формата : Version 2Профиль формата : Main@MainПараметр BVOP формата : ДаПараметр матрицы формата : ВыборочнаяПараметр GOP формата : M=3, N=24Продолжительность : 7 м. 5 с.Вид битрейта : ПеременныйБитрейт : 2830 Кбит/секШирина : 720 пикселейВысота : 576 пикселейСоотношение сторон : 16:9Частота кадров : 25,000 кадров/секСтандарт вещания : PALЦветовое пространство : YUVСубдискретизация насыщенности : 4:2:0Битовая глубина : 8 битТип развёртки : ПрогрессивнаяПорядок развёртки : Верхнее поле первоеМетод сжатия : С потерямиБит/(Пиксели*Кадры) : 0.273Размер потока : 143 Мбайт (92%)
АудиоИдентификатор : 192 (0xC0)Формат : MPEG AudioВерсия формата : Version 1Профиль формата : Layer 2Продолжительность : 7 м. 5 с.Вид битрейта : ПостоянныйБитрейт : 192 Кбит/секКаналы : 2 каналаЧастота : 48,0 КГцМетод сжатия : С потерямиРазмер потока : 9,73 Мбайт (6%)

Скриншот c названием фильма

Скриншоты

Скриншоты анаморфированные

-674/656√
[teatrix.ru].t4109.torrent 
Торрент: Зарегистрирован [ 2015-10-07 12:13 ] · 1D616EC2B70DD3E7CEC1F01608E7385BF39729BD

Скачать .torrent

Скачать

13 KB

Статус: проверено
Скачан: 0 раз
Размер: 156 MB
terms.php



Быстрый ответ

Имя:

      
Для отправки сообщений необходимо включить JavaScript
Показать сообщения:    

Текущее время: 03-Дек 18:42

Часовой пояс: UTC + 3


Вы можете начинать темы
Вы можете отвечать на сообщения
Вы не можете редактировать свои сообщения
Вы не можете удалять свои сообщения
Вы не можете голосовать в опросах
Вы не можете прикреплять файлы к сообщениям
Вы можете скачивать файлы