Народное просвещение / Education Nationale (Алаа Еддин Альем / Alaa Eddine Aljem) [2011, Марокко, комедия, драма, короткий метр, экзотический национальный кинематограф, DVB] Original (Arab) + Sub (rus)


Статистика раздачи [Обновить пиров]
Размер:  697 MB   |    Зарегистрирован:  1 год 1 месяц   |    Скачан:  0 раз

Полного источника не было: Никогда

 
   
 
 
 

[Цитировать]

Народное просвещение
Education Nationale- Страна: Марокко
Жанр: комедия, драма, короткий метр, экзотический национальный кинематограф
Год выпуска: 2011
Продолжительность: 00:34:56
Перевод: Субтитры (перевод И. Рыбкиной, Éclair Group)
Cубтитры: русские
Оригинальная аудиодорожка: арабский
Режиссер: Алаа Еддин Альем / Alaa Eddine Aljem
В ролях: Абдельхани Китаб / Abdelghani Kitab (L'instituteur), Аюб Гархи / Ayoub Garhi (L'enfant)
Описание: Молодой учитель начальных классов получает свою первую работу в сельской школе. Отрезанный от остального мира посреди пустыни он ждет своего первого ученика…
Доп. информация: Собственная запись со спутника (канал TV5MONDE). На экране дополнительно вшитые французские субтитры.
Награда Clermont-Ferrand Film Festival 2012 за лучшую короткометражку.
Сэмпл: http://multi-up.com/841510
Качество видео: DVB
Формат видео: MPEG-PS (См. при проблемах с просмотром видео)
Видео: MPEG Video 2, 720x576@1024x576 (16:9), 25 fps, ~2542 kbps avg, 0.245 bit/pixel
Аудио: Французский (48 kHz, MPEG Audio 2, 2 ch, ~192.00 kbps avg)
Формат субтитров: hardsub (неотключаемые)

MediaInfo

Полное имя : H:\My Torrents\[apreder]MINI_MOVIE_008\[apreder]MM_Education_Nationale(2011)DVB.mpgФормат : MPEG-PSРазмер файла : 697 МбайтПродолжительность : 34 м.Режим общего битрейта : ПеременныйОбщий поток : 2790 Кбит/сек
ВидеоИдентификатор : 224 (0xE0)Формат : MPEG VideoВерсия формата : Version 2Профиль формата : Main@MainПараметр BVOP формата : ДаПараметр матрицы формата : ВыборочнаяПараметр GOP формата : M=3, N=24Продолжительность : 34 м.Вид битрейта : ПеременныйБитрейт : 2542 Кбит/секШирина : 720 пикселейВысота : 576 пикселейСоотношение сторон : 16:9Частота кадров : 25,000 кадров/секСтандарт вещания : PALЦветовое пространство : YUVСубдискретизация насыщенности : 4:2:0Битовая глубина : 8 битТип развёртки : ПрогрессивнаяПорядок развёртки : Верхнее поле первоеМетод сжатия : С потерямиБит/(Пиксели*Кадры) : 0.245Размер потока : 635 Мбайт (91%)
АудиоИдентификатор : 192 (0xC0)Формат : MPEG AudioВерсия формата : Version 1Профиль формата : Layer 2Продолжительность : 34 м.Вид битрейта : ПостоянныйБитрейт : 192 Кбит/секКаналы : 2 каналаЧастота : 48,0 КГцМетод сжатия : С потерямиРазмер потока : 48,0 Мбайт (7%)

Скриншот c названием фильма

Скриншоты


Скриншоты анаморфированные


-642/624√
[teatrix.ru].t4113.torrent 
Торрент: Зарегистрирован [ 2015-10-07 12:13 ] · 5E6053D1F88A7C2AFB9B1B0DCB71B7BA74EB1A1A

Скачать .torrent

Скачать

14 KB

Статус: проверено
Скачан: 0 раз
Размер: 697 MB
terms.php



Быстрый ответ

Имя:

      
Для отправки сообщений необходимо включить JavaScript
Показать сообщения:    

Текущее время: 05-Дек 01:23

Часовой пояс: UTC + 3


Вы можете начинать темы
Вы можете отвечать на сообщения
Вы не можете редактировать свои сообщения
Вы не можете удалять свои сообщения
Вы не можете голосовать в опросах
Вы не можете прикреплять файлы к сообщениям
Вы можете скачивать файлы