Это не фильм о ковбоях / Ce n'est pas un film de cow-boys (Бенжамин Парент / Benjamin Parent) [2011, Франция, короткометражка, SATRip] sub rus +original fr


Статистика раздачи [Обновить пиров]
Размер:  160 MB   |    Зарегистрирован:  1 год 2 месяца   |    Скачан:  0 раз

Полного источника не было: Никогда

 
   
 
 
 

[Цитировать]

Это не фильм о ковбоях / Ce n'est pas un film de cow-boysГод выпуска: 2011
Страна: Франция
Жанр: короткометражка
Продолжительность: 00:11:53
Перевод: Субтитры
Cубтитры: русские (myfrenchfilmfestival)
Оригинальная аудиодорожка: французский
Режиссер: Бенжамин Парент / Benjamin Parent
Сценарий: Йорис Морио / Joris Morio, Бенжамин Парент / Benjamin Parent
Продюсер: Дэвид Френкель / David Frenkel, Арно Мориа / Arno Moria
Оператор: Nicolas Loir
В ролях: Лейла Чурки (Vanessa), Дэмиен Гомес, Геренс Марилье (Nadia), Финнегэн Олдфилд (Vincent), Malivaï Yakou (Moussa)-Описание: Вчера по телевизору транслировался фильм «Горбатая гора». Венсан был потрясён. Он пользуется переменой и интимностью школьного туалета, чтобы рассказать трогательно и с наивностью содержание фильма Муссе. За стеной, в женском туалете, Джессика, также тронутая фильмом, пользуется возможностью, чтобы задать вопросы Наде о её отце гомосексуалисте в очень бестактной форме.-Рейтинг
Кинопоиск
IMDB-Качество: SATRip
Формат: AVI
Видео: XviD; 704x288 (2.40:1); 1745 Kbps; 25 fps; 0,344 bpp
Аудио: MP3; 128 Kbps; CBR; 2 ch; 44.1 KHz-

MI

Format : AVI
Format/Info : Audio Video Interleave
File size : 160 MiB
Duration : 11mn 53s
Overall bit rate : 1 884 Kbps
Writing application : VirtualDubMod 1.5.10.3 | www.virtualdub-fr.org || (build 2550/release)
Writing library : VirtualDubMod build 2550/release
Video
ID : 0
Format : MPEG-4 Visual
Format profile : Advanced Simple@L5
Format settings, BVOP : 2
Format settings, QPel : No
Format settings, GMC : No warppoints
Format settings, Matrix : Default (MPEG)
Codec ID : XVID
Codec ID/Hint : XviD
Duration : 11mn 53s
Bit rate : 1 746 Kbps
Width : 704 pixels
Height : 288 pixels
Display aspect ratio : 2.40:1
Frame rate : 25.000 fps
Color space : YUV
Chroma subsampling : 4:2:0
Bit depth : 8 bits
Scan type : Progressive
Compression mode : Lossy
Bits/(Pixel*Frame) : 0.344
Stream size : 148 MiB (93%)
Writing library : XviD 1.2.1 (UTC 2008-12-04)
Audio
ID : 1
Format : MPEG Audio
Format version : Version 1
Format profile : Layer 3
Codec ID : 55
Codec ID/Hint : MP3
Duration : 11mn 53s
Bit rate mode : Constant
Bit rate : 128 Kbps
Channel(s) : 2 channels
Sampling rate : 44.1 KHz
Compression mode : Lossy
Stream size : 10.9 MiB (7%)
Alignment : Split accross interleaves
Interleave, duration : 40 ms (1.00 video frame)
Interleave, preload duration : 500 ms
Writing library : LAME3.99r
Encoding settings : -m s -V 4 -q 2 -lowpass 17 -b 128

Пример субтитров

97
00:05:36,820 --> 00:05:40,659
Значит твой отец нормальный,
он с твоей мамой, и всё такое.
98
00:05:40,780 --> 00:05:42,659
Как он превратился в голубого?
99
00:05:42,820 --> 00:05:44,259
Мой отец не оборотень!
100
00:05:44,460 --> 00:05:46,739
Знаю. Это просто выражение.
101
00:05:49,140 --> 00:05:50,819
Даже не знаю.
102
00:05:51,420 --> 00:05:53,059
Я у него никогда не спрашивала.
103
00:05:53,700 --> 00:05:56,659
Думаю, что однажды он понял,
104
00:05:56,820 --> 00:06:00,099
что ему всегда нравились мужчины,
но он никогда в этом не признавался
105
00:06:01,100 --> 00:06:03,938
Иногда ты очень рано понимаешь
что ты не такой как все.
106
00:06:04,500 --> 00:06:05,979
Ты что-то чувствуешь,
107
00:06:06,220 --> 00:06:08,339
но ты не знаешь, что это.
108
00:06:08,740 --> 00:06:10,019
И ты никому об этом не говоришь
109
00:06:10,260 --> 00:06:12,419
так как другие этого не поймут.
110
00:06:14,300 --> 00:06:15,938
То же самое было с папой.
111
00:06:16,740 --> 00:06:19,099
Только он позже понял,
что ошибался.
112
00:06:30,340 --> 00:06:33,059
Как твой отец ошибся!
113
00:06:34,540 --> 00:06:35,539
Перестань!
114
00:06:35,700 --> 00:06:37,459
То же самое, что в "Макдональдсе"
заказал Биг Мак,
115
00:06:37,580 --> 00:06:39,619
а хотел куриные наггетсы.
116
00:06:39,939 --> 00:06:43,179
А потом сказал.
Чёрт, я перепутал!"
117
00:06:44,820 --> 00:06:45,659
Умереть - не встать!

Скриншоты

[teatrix.ru].t4116.torrent 
Торрент: Зарегистрирован [ 2015-10-07 12:13 ] · 3BCEC2346072201BB49EAC67BD30AC32A7ADDC93

Скачать .torrent

Скачать

13 KB

Статус: проверено
Скачан: 0 раз
Размер: 160 MB
terms.php



Быстрый ответ

Имя:

      
Для отправки сообщений необходимо включить JavaScript
Показать сообщения:    

Текущее время: 11-Дек 09:11

Часовой пояс: UTC + 3


Вы можете начинать темы
Вы можете отвечать на сообщения
Вы не можете редактировать свои сообщения
Вы не можете удалять свои сообщения
Вы не можете голосовать в опросах
Вы не можете прикреплять файлы к сообщениям
Вы можете скачивать файлы