Дни / Les jours (Максим Жиру / Maxime Giroux) [2006, Канада, Драма, DVDRip] + Sub Rus + Original Fre


Статистика раздачи [Обновить пиров]
Размер:  338 MB   |    Зарегистрирован:  1 год 2 месяца   |    Скачан:  0 раз

Полного источника не было: Никогда

 
   
 
 
 

[Цитировать]

Дни / Les jours
Страна: Канада
Жанр: Драма
Год выпуска: 2006
Продолжительность: 00:24:07
Перевод: Субтитры: creo140
Cубтитры: русские
Оригинальная аудиодорожка: французский
Режиссер: Максим Жиру / Maxime Giroux
В ролях: Гилдор Рой, Клемент Сассевилль
Описание: В фильме "Дни", рассказывается о трагической смерти и последующих днях
Доп. информация: http://www.kinopoisk.ru/film/430979/
http://www.imdb.com/title/tt0841117/
Сэмпл: http://www.mediafire.com/?bcrvm6koe6oe42n
Качество видео: DVDRip
Формат видео: AVI
Видео: 720x400 (1.80:1), 23.976 fps, XviD build 50 ~1759 kbps avg, 0.25 bit/pixel
Аудио: 48 kHz, AC3 Dolby Digital, 2/0 (L,R) ch, ~192 kbps
Формат субтитров: softsub (SRT)

MediaInfo

Format : AVI
Format/Info : Audio Video Interleave
File size : 338 MiB
Duration : 24mn 7s
Overall bit rate : 1 961 Kbps
Writing application : VirtualDubMod 1.5.10.3 | www.virtualdub-fr.org || (build 2550/release)
Writing library : VirtualDubMod build 2550/release
Video
ID : 0
Format : MPEG-4 Visual
Format profile : Advanced Simple@L5
Format settings, BVOP : 2
Format settings, QPel : No
Format settings, GMC : No warppoints
Format settings, Matrix : Default (MPEG)
Codec ID : XVID
Codec ID/Hint : XviD
Duration : 24mn 7s
Bit rate : 1 759 Kbps
Width : 720 pixels
Height : 400 pixels
Display aspect ratio : 16:9
Frame rate : 23.976 fps
Color space : YUV
Chroma subsampling : 4:2:0
Bit depth : 8 bits
Scan type : Progressive
Compression mode : Lossy
Bits/(Pixel*Frame) : 0.255
Stream size : 304 MiB (90%)
Writing library : XviD 1.2.1 (UTC 2008-12-04)
Audio
ID : 1
Format : AC-3
Format/Info : Audio Coding 3
Mode extension : CM (complete main)
Format settings, Endianness : Big
Codec ID : 2000
Duration : 24mn 7s
Bit rate mode : Constant
Bit rate : 192 Kbps
Channel(s) : 2 channels
Channel positions : Front: L R
Sampling rate : 48.0 KHz
Bit depth : 16 bits
Compression mode : Lossy
Stream size : 33.1 MiB (10%)
Alignment : Split accross interleaves
Interleave, duration : 42 ms (1.00 video frame)
Interleave, preload duration : 500 ms

Скриншот c названием фильма

Фрагмент субтитров

12
00:04:47,954 --> 00:04:51,581
День седьмой
13
00:06:56,382 --> 00:06:57,644
Последний поклон, господа.
14
00:07:55,391 --> 00:07:59,060
День одиннадцатый
15
00:09:17,890 --> 00:09:20,256
Это 30-06.
16
00:09:20,726 --> 00:09:25,629
Чтобы зарядить, ты тянешь за это.
Ты вставляешь пули сюда.
17
00:09:25,831 --> 00:09:29,028
Может потребоваться 8 пуль
но достаточно и четырех.
18
00:09:29,702 --> 00:09:34,867
Главное предохранитель,
который блокирует спусковой крючок.
19
00:09:35,341 --> 00:09:38,799
Для выстрела, ты должен нажать
и снять с предохранителя.
[teatrix.ru].t4119.torrent 
Торрент: Зарегистрирован [ 2015-10-07 12:13 ] · 74F890B06BDC8049639A1F82425A7AC33EF05B1D

Скачать .torrent

Скачать

14 KB

Статус: проверено
Скачан: 0 раз
Размер: 338 MB
terms.php



Быстрый ответ

Имя:

      
Для отправки сообщений необходимо включить JavaScript
Показать сообщения:    

Текущее время: 08-Дек 10:59

Часовой пояс: UTC + 3


Вы можете начинать темы
Вы можете отвечать на сообщения
Вы не можете редактировать свои сообщения
Вы не можете удалять свои сообщения
Вы не можете голосовать в опросах
Вы не можете прикреплять файлы к сообщениям
Вы можете скачивать файлы