Красная земля / Le rouge au sol (Максим Жиру / Maxime Giroux) [2006, Канада, Драма, DVDRip] + Sub Rus + Original Fre


Статистика раздачи [Обновить пиров]
Размер:  207 MB   |    Зарегистрирован:  1 год 2 месяца   |    Скачан:  0 раз

Полного источника не было: Никогда

 
   
 
 
 

[Цитировать]

Красная земля / Le rouge au sol
Страна: Канада
Жанр: Драма
Год выпуска: 2006
Продолжительность: 00:16:33
Перевод: Субтитры creo140
Cубтитры: русские
Оригинальная аудиодорожка: французский
Режиссер: Максим Жиру / Maxime Giroux
В ролях: Мартин Дюпрей, Моник Пион
Описание: Разговор сына с матерью, по заснеженной дороге в Икею.
Доп. информация: http://www.imdb.com/title/tt0493444/
Сэмпл: http://www.mediafire.com/?hteoxyon3k3vb7a
Качество видео: DVDRip
Формат видео: AVI
Видео: 704x384 (1.83:1), 23.976 fps, XviD build 50 ~1544 kbps avg, 0.24 bit/pixel
Аудио: 48 kHz, AC3 Dolby Digital, 2/0 (L,R) ch, ~192 kbps
Формат субтитров: softsub (SRT)

MediaInfo

Format : AVI
Format/Info : Audio Video Interleave
File size : 207 MiB
Duration : 16mn 33s
Overall bit rate : 1 746 Kbps
Writing application : VirtualDubMod 1.5.10.3 | www.virtualdub-fr.org || (build 2550/release)
Writing library : VirtualDubMod build 2550/release
Video
ID : 0
Format : MPEG-4 Visual
Format profile : Advanced Simple@L5
Format settings, BVOP : 2
Format settings, QPel : No
Format settings, GMC : No warppoints
Format settings, Matrix : Default (MPEG)
Codec ID : XVID
Codec ID/Hint : XviD
Duration : 16mn 33s
Bit rate : 1 545 Kbps
Width : 704 pixels
Height : 384 pixels
Display aspect ratio : 1.85:1
Frame rate : 23.976 fps
Color space : YUV
Chroma subsampling : 4:2:0
Bit depth : 8 bits
Scan type : Progressive
Compression mode : Lossy
Bits/(Pixel*Frame) : 0.238
Stream size : 183 MiB (88%)
Writing library : XviD 1.2.1 (UTC 2008-12-04)
Audio
ID : 1
Format : AC-3
Format/Info : Audio Coding 3
Mode extension : CM (complete main)
Format settings, Endianness : Big
Codec ID : 2000
Duration : 16mn 33s
Bit rate mode : Constant
Bit rate : 192 Kbps
Channel(s) : 2 channels
Channel positions : Front: L R
Sampling rate : 48.0 KHz
Bit depth : 16 bits
Compression mode : Lossy
Stream size : 22.7 MiB (11%)
Alignment : Split accross interleaves
Interleave, duration : 42 ms (1.00 video frame)
Interleave, preload duration : 500 ms

Скриншот c названием фильма

Фрагмент субтитров

7
00:08:47,293 --> 00:08:48,521
Ремень безопасности.
8
00:09:32,572 --> 00:09:34,802
Ты скажешь мне, когда надо будет съехать.
9
00:09:39,111 --> 00:09:42,547
Мне больше не нравится водить.
Слишком много дураков в наши дни.
10
00:09:45,785 --> 00:09:47,912
Дураки были всегда.
11
00:09:53,025 --> 00:09:56,984
Мне надо опять проверить зрение.
Я ничего не вижу.
12
00:10:01,734 --> 00:10:03,827
Твоя рука немного лучше?
13
00:10:04,503 --> 00:10:06,334
Моё плечо, а не рука.
14
00:10:13,112 --> 00:10:15,808
Твой папа говорит,
связки, как одежда.
15
00:10:16,949 --> 00:10:19,384
Должна порваться по шву, для того, чтобы зажить.
[teatrix.ru].t4120.torrent 
Торрент: Зарегистрирован [ 2015-10-07 12:13 ] · FB5778F6232856FF5CB97EC8A5370561E8CFFBA9

Скачать .torrent

Скачать

17 KB

Статус: проверено
Скачан: 0 раз
Размер: 207 MB
terms.php



Быстрый ответ

Имя:

      
Для отправки сообщений необходимо включить JavaScript
Показать сообщения:    

Текущее время: 10-Дек 02:14

Часовой пояс: UTC + 3


Вы можете начинать темы
Вы можете отвечать на сообщения
Вы не можете редактировать свои сообщения
Вы не можете удалять свои сообщения
Вы не можете голосовать в опросах
Вы не можете прикреплять файлы к сообщениям
Вы можете скачивать файлы