Труженики Франции / Франция просыпается рано / La France qui se leve tot / La France qui se lève tôt (Юго Шенар / Hugo Chesnard) [2011, Франция, комедия, драма, мюзикл, короткий метр, DVB] Original (Fre) + Sub (rus hard)


Статистика раздачи [Обновить пиров]
Размер:  431 MB   |    Зарегистрирован:  1 год 1 месяц   |    Скачан:  0 раз

Полного источника не было: Никогда

 
   
 
 
 

[Цитировать]

Труженики Франции / Франция просыпается рано
La France qui se lève tôt- Страна: Франция
Жанр: комедия, драма, мюзикл, короткий метр
Год выпуска: 2011
Продолжительность: 00:20:49
Перевод: Субтитры (перевод М. Лабори, Éclair Group)
Cубтитры: русские
Оригинальная аудиодорожка: французский
Режиссер: Юго Шенар / Hugo Chesnard
В ролях: Рики Трибор / Ricky Tribord (Souleymane), Полин Этьен / Pauline Etienne (Aurélie), Женни Мютела / Jenny Mutela (Assia), Патрик Каталифо / Patrick Catalifo (Le policier expulsion)
Описание: "Иммигрант, добро пожаловать во Францию, страну прав человека, на родину свободы".
Арт-хаусный мюзикл построен по принципу триеровской "Танцующей в темноте", когда действия и звуки машин, агрегатов и механизмов превращаются в музыку, а движения рабочих - нелегальных иммигрантов - в танцы.
Фильм основан на реальных событиях лета 2006 года, когда нелегальный иммигрант Souleymane Bagayogo, работник частной охранной фирмы, был арестован при исполнении своих обязанностей и депортирован в Мали, несмотря на то, что у него был официальный контракт и лицензия на деятельность, и он полностью платил все причитающиеся налоги, а его жена вскоре собиралась рожать.
Доп. информация: Собственная запись со спутника (канал TV5MONDE).
Награды: 2-й приз Confrontations - Festival international du court-métrage de Berlin (Interfilm) 2011; приз за лучший сценарий Gindou Film Festival 2011; приз "Золотой медведь" Festival des Nations d'Ebensee 2012; Специальный почетный приз жюри Rencontres du court 2012; награда Prix spécial Babel TV - Festival international du court-métrage & des nouvelles images de Rome (Arcipelago) 2012; приз Зрительских симпатий Festival international du court-métrage de Clermont-Ferrand 2012; номинация на "Сезар" 2012 за лучший короткометражный фильм.
Информация: http://www.imdb.com/title/tt2027143/
Сэмпл: http://multi-up.com/828176
Качество видео: DVB
Формат видео: MPEG-PS
Видео: MPEG Video 2, 720x576@1024x576 (16:9), 25 fps, ~2643 kbps avg, 0.255 bit/pixel
Аудио: Французский (48 kHz, MPEG Audio 2, 2 ch, ~192.00 kbps avg)
Формат субтитров: hardsub (неотключаемые)

MediaInfo

Полное имя : H:\My Torrents\[apreder]MINI_MOVIE_008\[apreder]MM_La_France_qui_se_leve_tot(2011)DVB.mpgФормат : MPEG-PSРазмер файла : 431 МбайтПродолжительность : 20 м.Режим общего битрейта : ПеременныйОбщий поток : 2893 Кбит/сек
ВидеоИдентификатор : 224 (0xE0)Формат : MPEG VideoВерсия формата : Version 2Профиль формата : Main@MainПараметр BVOP формата : ДаПараметр матрицы формата : ВыборочнаяПараметр GOP формата : M=3, N=24Продолжительность : 20 м.Вид битрейта : ПеременныйБитрейт : 2643 Кбит/секШирина : 720 пикселейВысота : 576 пикселейСоотношение сторон : 16:9Частота кадров : 25,000 кадров/секСтандарт вещания : PALЦветовое пространство : YUVСубдискретизация насыщенности : 4:2:0Битовая глубина : 8 битТип развёртки : ПрогрессивнаяПорядок развёртки : Верхнее поле первоеМетод сжатия : С потерямиБит/(Пиксели*Кадры) : 0.255Размер потока : 394 Мбайт (91%)
АудиоИдентификатор : 192 (0xC0)Формат : MPEG AudioВерсия формата : Version 1Профиль формата : Layer 2Продолжительность : 20 м.Вид битрейта : ПостоянныйБитрейт : 192 Кбит/секКаналы : 2 каналаЧастота : 48,0 КГцМетод сжатия : С потерямиРазмер потока : 28,6 Мбайт (7%)

Скриншот c названием фильма

Скриншоты


Скриншоты анаморфированные


-603/585√
[teatrix.ru].t4121.torrent 
Торрент: Зарегистрирован [ 2015-10-07 12:13 ] · 0C6BC813A941DC0B38BD972946F098AF57C46499

Скачать .torrent

Скачать

17 KB

Статус: проверено
Скачан: 0 раз
Размер: 431 MB
terms.php



Быстрый ответ

Имя:

      
Для отправки сообщений необходимо включить JavaScript
Показать сообщения:    

Текущее время: 04-Дек 19:22

Часовой пояс: UTC + 3


Вы можете начинать темы
Вы можете отвечать на сообщения
Вы не можете редактировать свои сообщения
Вы не можете удалять свои сообщения
Вы не можете голосовать в опросах
Вы не можете прикреплять файлы к сообщениям
Вы можете скачивать файлы