Летний дом / Летний коттедж / Sommerhuset (Оле Гьевер / Ole Giæver) [2008, Норвегия, драма, DVDRip] + Sub Rus + Original Nor


Статистика раздачи [Обновить пиров]
Размер:  350 MB   |    Зарегистрирован:  1 год 1 месяц   |    Скачан:  0 раз

Полного источника не было: Никогда

 
   
 
 
 

[Цитировать]

Летний дом / Летний коттедж / Sommerhuset- Страна: Норвегия
Жанр: драма
Год выпуска: 2008
Продолжительность: 00:41:29-Перевод: субтитры (Hurin)
Cубтитры: русские (софтсаб), английские (хардсаб)
Оригинальная аудиодорожка: норвежский-Режиссер: Оле Гьевер / Ole Giæver
В ролях: Мария Бок (...Ренате), Марте Магнусдоттер Солем (...Мари), Ким Сёренсен (...Бьёрн-Туре), Каролине Эйан (...Гедда), Фредрик Лонгва (...Андреас).-Описание: Ренате боится, что потеряет контроль над происходящим, если позволит себе оплакивать смерть матери. Когда испытываемое ей давление отражается на её отношениях с младшей сестрой, она понимает, что практически и так уже ничего не контролирует. "Летний дом" - история о тоске по человеческой близости, тоске о том, что было и чего больше нет.-Качество видео: DVDRip
Формат видео: AVI
Видео: XviD, 640x336 (1.905), 25.000 fps, 1 012 Kbps
Аудио: MP3, 48.0 KHz, 155 Kbps (variable), 2 channels
Формат субтитров: softsub (ASS + SRT)

MediaInfo

General
Complete name : C:\
Format : AVI
Format/Info : Audio Video Interleave
File size : 350 MiB
Duration : 41mn 29s
Overall bit rate : 1 180 Kbps
Writing application : VirtualDubMod 1.5.10.2 (build 2540/release)
Writing library : VirtualDubMod build 2540/release
Video
ID : 0
Format : MPEG-4 Visual
Format profile : Advanced Simple@L5
Format settings, BVOP : Yes
Format settings, QPel : No
Format settings, GMC : No warppoints
Format settings, Matrix : Default (H.263)
Codec ID : XVID
Codec ID/Hint : XviD
Duration : 41mn 29s
Bit rate : 1 012 Kbps
Width : 640 pixels
Height : 336 pixels
Display aspect ratio : 1.905
Frame rate : 25.000 fps
Resolution : 8 bits
Colorimetry : 4:2:0
Scan type : Progressive
Bits/(Pixel*Frame) : 0.188
Stream size : 300 MiB (86%)
Writing library : XviD 1.2.1 (UTC 2008-12-04)
Audio
ID : 1
Format : MPEG Audio
Format version : Version 1
Format profile : Layer 3
Mode : Joint stereo
Format_Settings_ModeExtension : MS Stereo
Codec ID : 55
Codec ID/Hint : MP3
Duration : 41mn 29s
Bit rate mode : Variable
Bit rate : 155 Kbps
Minimum bit rate : 32.0 Kbps
Channel(s) : 2 channels
Sampling rate : 48.0 KHz
Stream size : 45.9 MiB (13%)
Alignment : Aligned on interleaves
Interleave, duration : 24 ms (0.60 video frame)
Interleave, preload duration : 253 ms
Writing library : LAME3.97
Encoding settings : -m j -V 2 -q 3 -lowpass 18.6 --vbr-new -b 32

Скриншоты



Пример субтитров

1
00:00:57,680 --> 00:01:01,679
ЛЕТНИЙ ДОМ
2
00:01:21,760 --> 00:01:24,439
Ренате.
3
00:01:24,520 --> 00:01:30,079
Как тебе эта?
Для комода в гостиной?
4
00:01:30,640 --> 00:01:34,039
Ну, не знаю...
5
00:01:35,240 --> 00:01:39,439
Посмотри на эту.
К дивану подойдёт идеально.
6
00:01:39,520 --> 00:01:45,599
Если удастся в трамвай затащить.
-Я позвонила Сесилии. Она нас заберёт.
7
00:01:57,680 --> 00:02:02,679
Какие планы на вечер?
-Если только квартирой заняться.
8
00:02:02,760 --> 00:02:07,399
Помочь не хочешь?
-Как насчёт кино?
9
00:02:07,400 --> 00:02:09,500
Отлично.
10
00:02:09,600 --> 00:02:12,199
А Хенриетте пойдёт?
-Давай её и спросим.
11
00:02:12,720 --> 00:02:17,199
А ты, Гедда?
-Я буду с Андреасом.
12
00:02:20,600 --> 00:02:24,199
Ты же, вроде, говорила,
что порвала с ним?
13
00:02:24,280 --> 00:02:26,359
Нет.
14
00:02:26,639 --> 00:02:33,399
Значит, всё уже не "так сложно"?
-Никто не расстаётся с места в карьер.
15
00:03:05,160 --> 00:03:07,679
Хорошо, сейчас, минуту.
16
00:03:07,760 --> 00:03:10,959
Сесилия билеты в кино бронирует.
-Я не пойду.
[teatrix.ru].t4122.torrent 
Торрент: Зарегистрирован [ 2015-10-07 12:13 ] · EFFF10C54E37EB44D9411041E12569B5CE460F87

Скачать .torrent

Скачать

14 KB

Статус: проверено
Скачан: 0 раз
Размер: 350 MB
terms.php



Быстрый ответ

Имя:

      
Для отправки сообщений необходимо включить JavaScript
Показать сообщения:    

Текущее время: 05-Дек 07:26

Часовой пояс: UTC + 3


Вы можете начинать темы
Вы можете отвечать на сообщения
Вы не можете редактировать свои сообщения
Вы не можете удалять свои сообщения
Вы не можете голосовать в опросах
Вы не можете прикреплять файлы к сообщениям
Вы можете скачивать файлы