Слезы вещей / Lacrimae rerum / Tears of thing (Никос Николаидис / Nikos Nikolaidis) [1962, Греция, Короткометражный, DVDRip]


Статистика раздачи [Обновить пиров]
Размер:  170 MB   |    Зарегистрирован:  1 год 1 месяц   |    Скачан:  0 раз

Полного источника не было: Никогда

 
   
 
 
 

[Цитировать]

Слезы вещей / Lacrimae rerum / Tears of thing
Страна: Греция
Жанр: Короткометражный
Год выпуска: 1962
Продолжительность: 00:11:03
Перевод: Не требуется
Режиссер и автор сценария: Никос Николаидис / Nikos Nikolaidis
Оператор: Глафкос Коттарас
Описание:
Воодушевленное прекрасной музыкой повествование, напоминает нам о жизненной цикличности. Рождение человека, расцвет его сил и его смерть.
Фильм "Слезы вещей", начинается с изображения полуистлевшей лодки, которая нашла своё последнее пристанище на кладбище. Песок, как будто являет сторону жизни находящейся ниже поверхности, по которой снуют гнилые, серые массы, мало чем отличающиеся от высохших скелетов. Крест на берегу в тождестве с Церковным убранством, вызывает чувство страха, смерти и религиозной скорби.
...здесь, музыка Грига умолкает...
Следующие кадры, ведут внутрь дома, где демонстрируют нам предметы, показывающие отрешение и потерю. Играет музыка Шуберта, предметы постепенно исчезают и наступает идиллия, все замирает.
И вдруг, начинается танец... Пробуждение, полет ввысь... Но все это, неизбежно приближает к смерти. К полному исчезновению...
Камера в свободном движении, кадры сменяют друг-друга в хаотичном порядке под различным наклоном, звучит музыка Сен-Санса.
Смерть и небытие, встречаются в пересечение вертикальных и диагональных линий, картина теряет смысловую окраску.
Статуя, символизирующая смерть с ее бледным ликом, разбивается. Отсчет времени окончен, часы остановились. Горящая свеча, как знак вечной памяти.
Эти три символа, предстают пред нами, в данной последовательности.

Никос Николаидис.
(пер. Max Nabokov)

Доп. информация: По мотивам стихотворения Лаброса Порфираса. В фильме звучит музыка Франца Шуберта, Сен-Санса и Эдварда Грига.
Отдельное спасибо mmmmmmmmmm, за наводку на рип
Качество видео: DVDRip
Формат видео: AVI
Видео: 640x480 (1.33:1), 25 fps, XviD build 50 ~1916 kbps avg, 0.25 bit/pixel
Аудио: 48 kHz, AC3 Dolby Digital, 2/0 (L,R) ch, ~224.00 kbps avg

MediaInfo

General
Complete name : D:\MOVIE\Lacrimae rerum\Lacrimae.rerum.1962.DVDRip.XviD.AC3.avi
Format : AVI
Format/Info : Audio Video Interleave
File size : 170 MiB
Duration : 11mn 3s
Overall bit rate : 2 151 Kbps
Writing application : VirtualDubMod 1.5.10.2 (build 2540/release)
Writing library : VirtualDubMod build 2540/release
Video
ID : 0
Format : MPEG-4 Visual
Format profile : Advanced Simple@L5
Format settings, BVOP : No
Format settings, QPel : No
Format settings, GMC : No warppoints
Format settings, Matrix : Default (MPEG)
Codec ID : XVID
Codec ID/Hint : XviD
Duration : 11mn 3s
Bit rate : 1 917 Kbps
Width : 640 pixels
Height : 480 pixels
Display aspect ratio : 4:3
Frame rate : 25.000 fps
Color space : YUV
Chroma subsampling : 4:2:0
Bit depth : 8 bits
Scan type : Progressive
Compression mode : Lossy
Bits/(Pixel*Frame) : 0.250
Stream size : 152 MiB (89%)
Writing library : XviD 1.2.1 (UTC 2008-12-04)
Audio
ID : 1
Format : AC-3
Format/Info : Audio Coding 3
Mode extension : CM (complete main)
Codec ID : 2000
Duration : 11mn 3s
Bit rate mode : Constant
Bit rate : 224 Kbps
Channel(s) : 2 channels
Channel positions : Front: L R
Sampling rate : 48.0 KHz
Bit depth : 16 bits
Compression mode : Lossy
Stream size : 17.7 MiB (10%)
Alignment : Split accross interleaves
Interleave, duration : 40 ms (1.00 video frame)
Interleave, preload duration : 500 ms

Скриншоты

[teatrix.ru].t4123.torrent 
Торрент: Зарегистрирован [ 2015-10-07 12:13 ] · 738523201F4CB0B6C15E1A5517EF5D1978F01A02

Скачать .torrent

Скачать

14 KB

Статус: проверено
Скачан: 0 раз
Размер: 170 MB
terms.php



Быстрый ответ

Имя:

      
Для отправки сообщений необходимо включить JavaScript
Показать сообщения:    

Текущее время: 04-Дек 02:56

Часовой пояс: UTC + 3


Вы можете начинать темы
Вы можете отвечать на сообщения
Вы не можете редактировать свои сообщения
Вы не можете удалять свои сообщения
Вы не можете голосовать в опросах
Вы не можете прикреплять файлы к сообщениям
Вы можете скачивать файлы