Стэнли Пикл / Stanley Pickle (Вики Мэзер / Vicky Mather) [2010, Великобритания, пиксиляция, stop-motion, DVDRip]


Статистика раздачи [Обновить пиров]
Размер:  137 MB   |    Зарегистрирован:  1 год 2 месяца   |    Скачан:  0 раз

Полного источника не было: Никогда

 
   
 
 
 

[Цитировать]

Стэнли Пикл / Stanley Pickle
Страна: Великобритания
Жанр: пиксиляция, stop-motion
Год выпуска: 2010
Продолжительность: 00:11:19
Перевод: Не требуется
Cубтитры: нет
Режиссер: Вики Мэзер / Vicky Mather
В ролях: Харука Абе, Гарет Брирли, Drew Caiden, Надя Морган
Описание: Стэнли 20 лет, он живет с семьей и никогда не выходит из дома. Такая жизнь кажется ему нормальной до тех пор, пока за окном не появляется таинственная незнакомка.
Доп. информация: Награда имени Нормана МакЛарена на МКФ в Эдинбурге (Великобритания); лучший студенческий фильм на фестивале Cinanima; лучший дипломный фильм на фестивале КРОК; лучший короткометражный фильм на МКФ в Аризоне (США) и др.
Качество видео: DVDRip
Формат видео: AVI
Видео: 720x400 (1.80:1), 25 fps, XviD MPEG-4 ~1452 kbps avg, 0.20 bit/pixel
Аудио: 48 kHz, AC3 Dolby Digital, 2/0 (L,R) ch, ~224.00 kbps avg

MediaInfo

General
Complete name : D:\MOVIE\КОРОТКОМЕТРАЖКА\Stanley Pickle 2010.avi
Format : AVI
Format/Info : Audio Video Interleave
File size : 137 MiB
Duration : 11mn 19s
Overall bit rate : 1 686 Kbps
Writing application : VirtualDubMod 1.5.10.2 (build 2540/release)
Writing library : VirtualDubMod build 2540/release
Video
ID : 0
Format : MPEG-4 Visual
Format profile : Advanced Simple@L5
Format settings, BVOP : 2
Format settings, QPel : No
Format settings, GMC : No warppoints
Format settings, Matrix : Custom
Muxing mode : Packed bitstream
Codec ID : XVID
Codec ID/Hint : XviD
Duration : 11mn 19s
Bit rate : 1 452 Kbps
Width : 720 pixels
Height : 400 pixels
Display aspect ratio : 16:9
Frame rate : 25.000 fps
Color space : YUV
Chroma subsampling : 4:2:0
Bit depth : 8 bits
Scan type : Progressive
Compression mode : Lossy
Bits/(Pixel*Frame) : 0.202
Stream size : 118 MiB (86%)
Writing library : XviD 65
Audio
ID : 1
Format : AC-3
Format/Info : Audio Coding 3
Mode extension : CM (complete main)
Codec ID : 2000
Duration : 11mn 19s
Bit rate mode : Constant
Bit rate : 224 Kbps
Channel(s) : 2 channels
Channel positions : Front: L R
Sampling rate : 48.0 KHz
Bit depth : 16 bits
Compression mode : Lossy
Stream size : 18.1 MiB (13%)
Alignment : Split accross interleaves
Interleave, duration : 40 ms (1.00 video frame)
Interleave, preload duration : 500 ms

Скриншот c названием фильма

Скриншоты

[teatrix.ru].t4124.torrent 
Торрент: Зарегистрирован [ 2015-10-07 12:13 ] · D9164F843F40A0AB0944C10209926D725B5716CD

Скачать .torrent

Скачать

11 KB

Статус: проверено
Скачан: 0 раз
Размер: 137 MB
terms.php



Быстрый ответ

Имя:

      
Для отправки сообщений необходимо включить JavaScript
Показать сообщения:    

Текущее время: 11-Дек 13:02

Часовой пояс: UTC + 3


Вы можете начинать темы
Вы можете отвечать на сообщения
Вы не можете редактировать свои сообщения
Вы не можете удалять свои сообщения
Вы не можете голосовать в опросах
Вы не можете прикреплять файлы к сообщениям
Вы можете скачивать файлы