Множественность / Plurality (Деннис Лю / Dennis Liu) [2012, США, короткометражка, фантастика, боевик, триллер, DVDRip] + Sub Rus


Статистика раздачи [Обновить пиров]
Размер:  178 MB   |    Зарегистрирован:  1 год 2 месяца   |    Скачан:  0 раз

Полного источника не было: Никогда

 
   
 
 
 

[Цитировать]

Множественность / Plurality
Страна: США
Жанр: короткометражка, фантастика, боевик, триллер
Год выпуска: 2012
Продолжительность: 00:14:11
Перевод: Субтитры
Cубтитры: русские (интегрированные)
Режиссер: Деннис Лю / Dennis Liu
В ролях: Heath Brandon, John Dash III, Алдоус Дэвидсон, Джон Ди Доменико, Дженис Мари, Jeffrey Nissani, Райан Преймесбергер, Wesli Spencer, Samantha Strelitz, Scott Wallace Jr.
Описание: Создатели фильма демонстрируют нам пример тоталитарного государства будущего, когда быстрая идентификация по ДНК, позволяет отказаться от огромного количества атрибутов, открывая все необходимые двери, оплачивая счета, снимая с сигнализации автомобили и много чего еще. Но есть одна проблема. Все это время, ваши передвижения и действия фиксируются. Это позволило практически истребить преступность, но, не оставило шанса на приватность никому.
Качество видео: DVDRip
Формат видео: AVI
Видео: 720x400 (1.80:1), 23.976 fps, XviD MPEG-4 ~1524 kbps avg, 0.22 bit/pixel
Аудио: 48 kHz, AC3 Dolby Digital, 2/0 (L,R) ch, ~224.00 kbps avg
Формат субтитров: hardsub (неотключаемые)

MediaInfo

General
Complete name : D:\MOVIE\КОРОТКОМЕТРАЖКА\Plurality.2012.avi
Format : AVI
Format/Info : Audio Video Interleave
File size : 178 MiB
Duration : 14mn 11s
Overall bit rate : 1 758 Kbps
Writing application : VirtualDubMod 1.5.10.2 (build 2540/release)
Writing library : VirtualDubMod build 2540/release
Video
ID : 0
Format : MPEG-4 Visual
Format profile : Advanced Simple@L5
Format settings, BVOP : 2
Format settings, QPel : No
Format settings, GMC : No warppoints
Format settings, Matrix : Custom
Muxing mode : Packed bitstream
Codec ID : XVID
Codec ID/Hint : XviD
Duration : 14mn 11s
Bit rate : 1 525 Kbps
Width : 720 pixels
Height : 400 pixels
Display aspect ratio : 16:9
Frame rate : 23.976 fps
Color space : YUV
Chroma subsampling : 4:2:0
Bit depth : 8 bits
Scan type : Progressive
Compression mode : Lossy
Bits/(Pixel*Frame) : 0.221
Stream size : 155 MiB (87%)
Writing library : XviD 65
Audio
ID : 1
Format : AC-3
Format/Info : Audio Coding 3
Mode extension : CM (complete main)
Codec ID : 2000
Duration : 14mn 11s
Bit rate mode : Constant
Bit rate : 224 Kbps
Channel(s) : 2 channels
Channel positions : Front: L R
Sampling rate : 48.0 KHz
Bit depth : 16 bits
Compression mode : Lossy
Stream size : 22.7 MiB (13%)
Alignment : Split accross interleaves
Interleave, duration : 42 ms (1.00 video frame)
Interleave, preload duration : 500 ms

Скриншоты

[teatrix.ru].t4125.torrent 
Торрент: Зарегистрирован [ 2015-10-07 12:13 ] · 0E6867BD2F651917A4E319B9512D2E49672DCC61

Скачать .torrent

Скачать

15 KB

Статус: проверено
Скачан: 0 раз
Размер: 178 MB
terms.php



Быстрый ответ

Имя:

      
Для отправки сообщений необходимо включить JavaScript
Показать сообщения:    

Текущее время: 11-Дек 09:10

Часовой пояс: UTC + 3


Вы можете начинать темы
Вы можете отвечать на сообщения
Вы не можете редактировать свои сообщения
Вы не можете удалять свои сообщения
Вы не можете голосовать в опросах
Вы не можете прикреплять файлы к сообщениям
Вы можете скачивать файлы