И дети начинают с малого / Даже дети начали улыбаться / Gam Yeladim hethilu ktanim (Янив Берман / Yaniv Berman) [2006, Израиль, короткометражка, DVDRip] + Sub Rus + Original Heb


Статистика раздачи [Обновить пиров]
Размер:  355 MB   |    Зарегистрирован:  1 год 1 месяц   |    Скачан:  0 раз

Полного источника не было: Никогда

 
   
 
 
 

[Цитировать]

И дети начинают с малого / Даже дети начали улыбаться / Gam Yeladim hethilu ktanim
Страна: Израиль
Жанр: короткометражка
Год выпуска: 2006
Продолжительность: 00:30:12
Перевод: Субтитры
Cубтитры: русские (Spartak 2005)
Оригинальная аудиодорожка: иврит
Режиссер: Янив Берман / Yaniv Berman
В ролях: Давид Азулай, Итай Бар, Юваль Берман, Ярив Готлиб, Таня Хеденфельд, Ноа Шедми, Тами Спивак, Джил Васерман, Маргалит Стэндер
Описание: Что произойдет если в один "прекрасный" день ученики и учителя поменяются местами? А ученики решат захватить школу?
"Посвящается Вернеру и Карликам".
Качество видео: DVDRip
Формат видео: AVI
Видео: Xvid 624x352 29.97fps 1499kbps
Аудио: MP3 48000Hz stereo 128kbps
Формат субтитров: softsub (SRT)

Пример субтитров

49
00:05:54,150 --> 00:05:55,770
Хорошо, хорошо, уже иду.
50
00:05:56,800 --> 00:05:58,900
- Да?
Сядьте пожалуйста на место.
51
00:06:01,790 --> 00:06:03,250
Пожалуйста.
52
00:06:36,360 --> 00:06:38,670
А теперь, с кем вы говорили по телефону?
53
00:06:42,400 --> 00:06:45,120
- Учитель по физкультуре.
- Спасибо
54
00:06:46,150 --> 00:06:47,889
Можно?
55
00:08:00,439 --> 00:08:03,399
9:10
Конец первого урока
56
00:08:18,089 --> 00:08:20,180
Что такое? У вас нет работы?
57
00:08:21,400 --> 00:08:23,080
Что ты хочешь, чтобы я сделала?
58
00:08:24,529 --> 00:08:26,720
Вы меня спрашиваете?
Вы здесь директриса.
59
00:08:28,900 --> 00:08:30,500
Зачем все это?
60
00:08:32,200 --> 00:08:34,050
Мне нужно в туалет.
61
00:08:34,679 --> 00:08:36,519
У меня есть проблема.
Мне нужно в туалет.
62
00:08:37,100 --> 00:08:39,200
Знаете, что я делаю, когда мне нужно в туалет?
63
00:08:39,350 --> 00:08:41,320
У меня есть медицинская проблема.
64
00:08:42,149 --> 00:08:45,900
Я ищу кого-нибудь, кто хочет пить
и срочно нуждается в поливке.
65
00:08:51,360 --> 00:08:52,940
И я его поливаю.
66
00:08:58,669 --> 00:09:01,200
И от этого все выигрывают.
67
00:09:02,139 --> 00:09:06,150
Мне не нужно далеко идти,
а цветок получает бесплатное питье.
68
00:09:11,049 --> 00:09:12,750
Мне нужно в туалет.
69
00:09:13,210 --> 00:09:15,870
Я показал вам, как мальчики это делают.

MediaInfo

ormat : AVI
Format/Info : Audio Video Interleave
File size : 355 MiB
Duration : 30mn 12s
Overall bit rate : 1 642 Kbps
Video
ID : 0
Format : MPEG-4 Visual
Format profile : Simple@L3
Format settings, BVOP : No
Format settings, QPel : No
Format settings, GMC : No warppoints
Format settings, Matrix : Default (H.263)
Codec ID : XVID
Codec ID/Hint : XviD
Duration : 30mn 12s
Source duration : 30mn 12s
Bit rate : 1 500 Kbps
Width : 624 pixels
Height : 352 pixels
Display aspect ratio : 16:9
Frame rate : 29.970 fps
Color space : YUV
Chroma subsampling : 4:2:0
Bit depth : 8 bits
Scan type : Progressive
Compression mode : Lossy
Bits/(Pixel*Frame) : 0.228
Stream size : 324 MiB (91%)
Writing library : XviD 1.1.2 (UTC 2006-11-01)
Audio
ID : 1
Format : MPEG Audio
Format version : Version 1
Format profile : Layer 3
Mode : Joint stereo
Mode extension : MS Stereo
Codec ID : 55
Codec ID/Hint : MP3
Duration : 30mn 12s
Bit rate mode : Constant
Bit rate : 128 Kbps
Channel(s) : 2 channels
Sampling rate : 48.0 KHz
Compression mode : Lossy
Delay relative to video : 24ms
Stream size : 27.7 MiB (8%)
Alignment : Split accross interleaves
Interleave, duration : 24 ms (0.72 video frame)
Writing library : LAME3.96.1

Скриншоты



[teatrix.ru].t4126.torrent 
Торрент: Зарегистрирован [ 2015-10-07 12:13 ] · 2CAE25190B3393E3D677CFDE33CCC98796A5AE51

Скачать .torrent

Скачать

14 KB

Статус: проверено
Скачан: 0 раз
Размер: 355 MB
terms.php



Быстрый ответ

Имя:

      
Для отправки сообщений необходимо включить JavaScript
Показать сообщения:    

Текущее время: 02-Дек 21:12

Часовой пояс: UTC + 3


Вы можете начинать темы
Вы можете отвечать на сообщения
Вы не можете редактировать свои сообщения
Вы не можете удалять свои сообщения
Вы не можете голосовать в опросах
Вы не можете прикреплять файлы к сообщениям
Вы можете скачивать файлы