Комар / Sweet Mosquito (Одри Нажар / Audrey Najar, Фредерик Перро / Frederic Perrot / Frédéric Perrot) [2012, Франция, комедия абсурда, черный юмор, короткий метр, DVB] Original (Fre) + Sub (rus hard)


Статистика раздачи [Обновить пиров]
Размер:  290 MB   |    Зарегистрирован:  1 год 2 месяца   |    Скачан:  0 раз

Полного источника не было: Никогда

 
   
 
 
 

[Цитировать]

Комар
Sweet Mosquito- Страна: Франция
Жанр: комедия абсурда, черный юмор, короткий метр
Год выпуска: 2012
Продолжительность: 00:14:35
Перевод: Субтитры (перевод М. Кузиной, Éclair Group)
Cубтитры: русские
Оригинальная аудиодорожка: французскийРежиссер: Одри Нажар / Audrey Najar, Фредерик Перро / Frédéric Perrot
В ролях: Бенжамин Роллан / Benjamin Rolland (Romain Sellier), Эрик Аверлан / Éric Averlant (Éric), Милуд Кетхиб / Miloud Kethib (Nabil), Амели Шопине / Amélie Chopinet (la jeune femme), Даниэль Берлиу / Daniel Berlioux (l'homme aux cheveux blancs)
Описание: После того, как умерший от сердечного приступа в возрасте 42-х лет Ромэн оказался похоронен чин-чинарем в приличном гробу на два метра под землей, оказалось, что вещи остаются совсем не там, где по нашим представлениям они должны оставаться, и не все события заканчиваются именно так, как мы привыкли об этом думать…
Доп. информация: запись со спутника (канал TV5MONDE).
Награды: приз "От всего сердца / Coup de cœur Canal+" (Canal+'s choice) Short Film Corner – Cannes 2012; 3-й приз жюри Festival du court-métrage (Locminé) 2012; приз жюри фестиваля короткометражных фильмов "Лучше смеяться, чем плакать / Mieux vaut en rire qu'en pleurer" (Choisy-le-Roi) 2012; приз художнику-постановщику Festival "Almeria en corto" (Espagne) 2012; приз за лучший сценарий Génération courts d'Aubervilliers 2012; приз жюри Festival des Pépites du Cinéma de Saint-Ouen 2012.
Информация: http://www.imdb.com/title/tt2174194/
Сэмпл: http://multi-up.com/815448
Качество видео: DVB
Формат видео: MPEG-PS
Видео: MPEG Video 2, 720x576@1024x576 (16:9), 25 fps, ~2536 kbps avg, 0.245 bit/pixel
Аудио: Французский (48 kHz, MPEG Audio 2, 2 ch, ~192.00 kbps avg)
Формат субтитров: hardsub (неотключаемые)

MediaInfo

Полное имя : H:\My Torrents\[apreder]MINI_MOVIE_008\[apreder]MM_Sweet_Mosquito(2012)DVB.mpgФормат : MPEG-PSРазмер файла : 290 МбайтПродолжительность : 14 м.Режим общего битрейта : ПеременныйОбщий поток : 2783 Кбит/сек
ВидеоИдентификатор : 224 (0xE0)Формат : MPEG VideoВерсия формата : Version 2Профиль формата : Main@MainПараметр BVOP формата : ДаПараметр матрицы формата : ВыборочнаяПараметр GOP формата : M=3, N=24Продолжительность : 14 м.Вид битрейта : ПеременныйБитрейт : 2536 Кбит/секШирина : 720 пикселейВысота : 576 пикселейСоотношение сторон : 16:9Частота кадров : 25,000 кадров/секСтандарт вещания : PALЦветовое пространство : YUVСубдискретизация насыщенности : 4:2:0Битовая глубина : 8 битТип развёртки : ПрогрессивнаяПорядок развёртки : Верхнее поле первоеМетод сжатия : С потерямиБит/(Пиксели*Кадры) : 0.245Размер потока : 265 Мбайт (91%)
АудиоИдентификатор : 192 (0xC0)Формат : MPEG AudioВерсия формата : Version 1Профиль формата : Layer 2Продолжительность : 14 м.Вид битрейта : ПостоянныйБитрейт : 192 Кбит/секКаналы : 2 каналаЧастота : 48,0 КГцМетод сжатия : С потерямиРазмер потока : 20,0 Мбайт (7%)

Скриншот c названием фильма

Скриншоты

Скриншоты анаморфированные

-561/543√
[teatrix.ru].t4127.torrent 
Торрент: Зарегистрирован [ 2015-10-07 12:13 ] · 5513540CE33C0DBC218642C33710E145CF62679C

Скачать .torrent

Скачать

12 KB

Статус: проверено
Скачан: 0 раз
Размер: 290 MB
terms.php



Быстрый ответ

Имя:

      
Для отправки сообщений необходимо включить JavaScript
Показать сообщения:    

Текущее время: 10-Дек 10:00

Часовой пояс: UTC + 3


Вы можете начинать темы
Вы можете отвечать на сообщения
Вы не можете редактировать свои сообщения
Вы не можете удалять свои сообщения
Вы не можете голосовать в опросах
Вы не можете прикреплять файлы к сообщениям
Вы можете скачивать файлы