Путешествие на Орион / Journey to Orion / Resan till Orion (Солвейг Нордлунд / Solveig Nordlund) [1986, Швеция, Фантастика, DVDRip] Original Swe + sub (Rus, Eng)


Статистика раздачи [Обновить пиров]
Размер:  108 MB   |    Зарегистрирован:  1 год 2 месяца   |    Скачан:  0 раз

Полного источника не было: Никогда

 
   
 
 
 

[Цитировать]

Путешествие на Орион / Journey to Orion / Resan till Orion
Страна: Швеция
Жанр: Фантастика
Год выпуска: 1986
Продолжительность: 00:16:47
Перевод: Субтитры
Доп.инфо о переводе: Anna Lilith и Mark Silinio
Cубтитры: русские, английские (hard)
Оригинальная аудиодорожка: шведский
Режиссер: Солвейг Нордлунд / Solveig Nordlund
В ролях:
Бьорн Гедда
Адам Счауб
Описание: В далёкий космический полёт отправлен звездолёт, населённый не командой, а целыми семьями. Только так. по мнению специалистов. люди способны преодолеть психологические трудности долгого пребывания в замкнутом пространстве.
Космонавты давно уже впали в апатию и разбились на кланы, за каждым из которых закреплена своя техническая функция. Новое поколение плохо понимает цель полёта и начинает сводить обязанности экипажа к традиционным обрядам, лишённым смысла.
По рассказу Джеймса Балларда «Тринадцать на пути к Альфа Центавра»
Доп. информация:
http://fantlab.ru/film1766
http://www.sfi.se/en-GB/Swedish-film-database/Item/...VIE&iv=Basic
Экранизация данного произведения от BBC:
http://www.ballardian.com/thirteen-to-centaurus
Другой фильм Солвейг Нордлунд по рассказу Джеймса Балларда "Низко летящий самолёт":
http://rutracker.org/forum/viewtopic.php?t=3231343
Сэмпл: http://multi-up.com/814454
Качество видео: DVDRip
Формат видео: AVI
Видео: FMP4, 352x240, 3:2, 29.970fps, 824 Kbps
Аудио: MP2, 44.1KHz, 64Kbps, stereo
Формат субтитров: hardsub (неотключаемые)

MediaInfo

General
Complete name : G:\видео\Journey to Orion (1986)\Journey to Orion (1986).avi
Format : AVI
Format/Info : Audio Video Interleave
File size : 108 MiB
Duration : 16mn 47s
Overall bit rate : 902 Kbps
Writing application : Lavf52.13.0
Video
ID : 0
Format : MPEG-4 Visual
Format profile : Simple@L1
Format settings, BVOP : No
Format settings, QPel : No
Format settings, GMC : No warppoints
Format settings, Matrix : Default (H.263)
Codec ID : FMP4
Duration : 16mn 47s
Bit rate : 824 Kbps
Width : 352 pixels
Height : 240 pixels
Display aspect ratio : 3:2
Frame rate : 29.970 fps
Standard : NTSC
Color space : YUV
Chroma subsampling : 4:2:0
Bit depth : 8 bits
Scan type : Progressive
Compression mode : Lossy
Bits/(Pixel*Frame) : 0.326
Stream size : 99.0 MiB (91%)
Writing library : Lavc51.54.0
Audio
ID : 1
Format : MPEG Audio
Format version : Version 1
Format profile : Layer 2
Codec ID : 50
Duration : 16mn 47s
Bit rate mode : Constant
Bit rate : 64.0 Kbps
Channel(s) : 2 channels
Sampling rate : 44.1 KHz
Compression mode : Lossy
Stream size : 7.68 MiB (7%)
Alignment : Aligned on interleaves
Interleave, duration : 26 ms (0.78 video frame)

Скриншот c названием фильма

Скриншоты

[teatrix.ru].t4128.torrent 
Торрент: Зарегистрирован [ 2015-10-07 12:13 ] · AE6F3CD2C3D88F01ED1AE9B01B045DAE9A0A26CB

Скачать .torrent

Скачать

18 KB

Статус: проверено
Скачан: 0 раз
Размер: 108 MB
terms.php



Быстрый ответ

Имя:

      
Для отправки сообщений необходимо включить JavaScript
Показать сообщения:    

Текущее время: 07-Дек 17:30

Часовой пояс: UTC + 3


Вы можете начинать темы
Вы можете отвечать на сообщения
Вы не можете редактировать свои сообщения
Вы не можете удалять свои сообщения
Вы не можете голосовать в опросах
Вы не можете прикреплять файлы к сообщениям
Вы можете скачивать файлы