Волос / Cheveu (Жюльен Аллар / Julien Hallard) [2010, Франция, экзистенциальная драма, короткий метр, DVB] Original (Fre) + Sub (rus hard, Eclair Group)


Статистика раздачи [Обновить пиров]
Размер:  320 MB   |    Зарегистрирован:  1 год 2 месяца   |    Скачан:  0 раз

Полного источника не было: Никогда

 
   
 
 
 

[Цитировать]

Волос
Cheveu- Страна: Франция
Жанр: экзистенциальная драма, короткий метр
Год выпуска: 2010
Продолжительность: 00:15:30
Перевод: Субтитры (перевод Éclair Group)
Cубтитры: русские
Оригинальная аудиодорожка: французский
Режиссер: Жюльен Аллар / Julien Hallard
В ролях: Франк Брюно / Franc Bruneau (Philippe), Жан-Пьер Бекер / Jean-Pierre Becker (Christian), Маттье Бонд / Matthew Bond (Doktor Kovakz), Жюли Деларм / Julie Delarme (Nadja), Стефани Ноэль / Stéphanie Noël (Mother)
Описание: Забавная комедия о начавшем лысеть рок-музыканте постепенно перемещается в плоскость драматических воспоминаний детства, всплывающих во время просмотра семейного киноархива наедине с отцом.
Доп. информация: Собственная запись со спутника (канал TV5MONDE).
Награды: Специальный почетный приз KKO festival (Kino Knocked Out festival) 2010; 3-е место по выбору зрителей Festival Courts Courts (Tourtour) 2010; приз за лучший фильм – выбор президента Festi'Val d'Oise du court 2010; приз за лучший дебют Festival du film (Sarlat) 2010; 2 награды Festival international de cinéma du Grain à Démoudre 2010 (приз Большого жюри; приз жюри кинокритиков).
Информация: http://www.imdb.com/title/tt1731139/
Сэмпл: http://multi-up.com/810991
Качество видео: DVB
Формат видео: MPEG-PS
Видео: MPEG Video 2, 720x576@1024x576 (16:9), 25 fps, ~2640 kbps avg, 0.255 bit/pixel
Аудио: Французский (48 kHz, MPEG Audio 2, 2 ch, ~192.00 kbps avg)
Формат субтитров: hardsub (неотключаемые)

MediaInfo

Полное имя : H:\My Torrents\[apreder]MINI_MOVIE_008\[apreder]MM_Cheveu(2010)DVB.mpgФормат : MPEG-PSРазмер файла : 320 МбайтПродолжительность : 15 м.Режим общего битрейта : ПеременныйОбщий поток : 2889 Кбит/сек
ВидеоИдентификатор : 224 (0xE0)Формат : MPEG VideoВерсия формата : Version 2Профиль формата : Main@MainПараметр BVOP формата : ДаПараметр матрицы формата : ВыборочнаяПараметр GOP формата : M=3, N=24Продолжительность : 15 м.Вид битрейта : ПеременныйБитрейт : 2640 Кбит/секШирина : 720 пикселейВысота : 576 пикселейСоотношение сторон : 16:9Частота кадров : 25,000 кадров/секСтандарт вещания : PALЦветовое пространство : YUVСубдискретизация насыщенности : 4:2:0Битовая глубина : 8 битТип развёртки : ПрогрессивнаяПорядок развёртки : Верхнее поле первоеМетод сжатия : С потерямиБит/(Пиксели*Кадры) : 0.255Размер потока : 293 Мбайт (91%)
АудиоИдентификатор : 192 (0xC0)Формат : MPEG AudioВерсия формата : Version 1Профиль формата : Layer 2Продолжительность : 15 м.Вид битрейта : ПостоянныйБитрейт : 192 Кбит/секКаналы : 2 каналаЧастота : 48,0 КГцМетод сжатия : С потерямиРазмер потока : 21,3 Мбайт (7%)

Скриншот c названием фильма

Скриншоты

Скриншоты анаморфированные

-542/524√
[teatrix.ru].t4129.torrent 
Торрент: Зарегистрирован [ 2015-10-07 12:13 ] · 5CFB04D6E343DF175381827AE10282552A0FD67F

Скачать .torrent

Скачать

13 KB

Статус: проверено
Скачан: 0 раз
Размер: 320 MB
terms.php



Быстрый ответ

Имя:

      
Для отправки сообщений необходимо включить JavaScript
Показать сообщения:    

Текущее время: 09-Дек 01:02

Часовой пояс: UTC + 3


Вы можете начинать темы
Вы можете отвечать на сообщения
Вы не можете редактировать свои сообщения
Вы не можете удалять свои сообщения
Вы не можете голосовать в опросах
Вы не можете прикреплять файлы к сообщениям
Вы можете скачивать файлы