Друзья превыше всего / А что, если попробовать? / Fais croquer (Ясин Кунья / Yassine Qnia) [2012, Франция, этническая комедия, короткий метр, DVB] Original (Fre) + Sub (rus hard, Рыбкина, Eclair Group)


Статистика раздачи [Обновить пиров]
Размер:  465 MB   |    Зарегистрирован:  1 год 1 месяц   |    Скачан:  0 раз

Полного источника не было: Никогда

 
   
 
 
 

[Цитировать]

Друзья превыше всего
Fais croquer- Страна: Франция
Жанр: этническая комедия, короткий метр
Год выпуска: 2012
Продолжительность: 00:22:19
Перевод: Субтитры (перевод И. Рыбкиой, Éclair Group)
Cубтитры: русские
Оригинальная аудиодорожка: французский
Режиссер: Ясин Кунья / Yassine Qnia
В ролях: М'Барек Белкук / M'Barek Belkouk (Yassine), Шмаэль Шалан / Smaïl Chalane (Smaïl), Мохамед Фаруд / Mohamed Faroud (Mohamed), Мунир Идрис / Mounir Idriss (Mounir), Руди Менди / Rudy Mendy (Rudy)
Описание: Снятая с использованием принципов "Догмы" короткометражка повествует об Ясине, страстном молодом кинолюбителе, который горит желанием снять фильм в родном арабском квартале с участием друзей детства. Но не так просто угодить всем желающим поучаствовать в проекте и сохранить целостность сюжета.
Доп. информация: Собственная запись со спутника (канал TV5MONDE).
Награды: 2 награды Festival du cinéma européen (Lille) 2012 (Специальный приз жюри, почетный приз); приз Зрительских симпатий Festival du film court "Coté court" (Pantin) 2012; приз Brutal de Bronze - Cinémabrut (Mouans-Sartoux) 2012; приз Malon d'or - Festival Courts Courts (Tourtour) 2012; приз за лучший фильм La Normandie et le monde (Vernon, Giverny) 2012; приз Зрительских симпатий от заключенных тюрьмы Амьен Festival international du film (Amiens) 2012; Специальный приз жюри Festival Tous Courts (Aix-en-Provence) 2012; Специальный приз жюри Festival du film de Vendôme 2012.
Информация: http://www.imdb.com/title/tt2319835/
Сэмпл: http://multi-up.com/808071
Качество видео: DVB
Формат видео: MPEG-PS
Видео: MPEG Video 2, 720x576@1024x576 (16:9), 25 fps, ~2662 kbps avg, 0.257 bit/pixel
Аудио: Французский (48 kHz, MPEG Audio 2, 2 ch, ~192.00 kbps avg)
Формат субтитров: hardsub (неотключаемые)

MediaInfo

Полное имя : H:\My Torrents\[apreder]MINI_MOVIE_008\[apreder]MM_Fais_croquer(2012)DVB.mpgФормат : MPEG-PSРазмер файла : 465 МбайтПродолжительность : 22 м.Режим общего битрейта : ПеременныйОбщий поток : 2912 Кбит/сек
ВидеоИдентификатор : 224 (0xE0)Формат : MPEG VideoВерсия формата : Version 2Профиль формата : Main@MainПараметр BVOP формата : ДаПараметр матрицы формата : ВыборочнаяПараметр GOP формата : M=3, N=24Продолжительность : 22 м.Вид битрейта : ПеременныйБитрейт : 2662 Кбит/секШирина : 720 пикселейВысота : 576 пикселейСоотношение сторон : 16:9Частота кадров : 25,000 кадров/секСтандарт вещания : PALЦветовое пространство : YUVСубдискретизация насыщенности : 4:2:0Битовая глубина : 8 битТип развёртки : ПрогрессивнаяПорядок развёртки : Верхнее поле первоеМетод сжатия : С потерямиБит/(Пиксели*Кадры) : 0.257Размер потока : 425 Мбайт (91%)
АудиоИдентификатор : 192 (0xC0)Формат : MPEG AudioВерсия формата : Version 1Профиль формата : Layer 2Продолжительность : 22 м.Вид битрейта : ПостоянныйБитрейт : 192 Кбит/секКаналы : 2 каналаЧастота : 48,0 КГцМетод сжатия : С потерямиРазмер потока : 30,6 Мбайт (7%)

Скриншот c названием фильма

Скриншоты

Скриншоты анаморфированные

-523/505√
[teatrix.ru].t4130.torrent 
Торрент: Зарегистрирован [ 2015-10-07 12:13 ] · C4C05848B62D6BFBE131F2FB0047FEA3FE5152BA

Скачать .torrent

Скачать

19 KB

Статус: проверено
Скачан: 0 раз
Размер: 465 MB
terms.php



Быстрый ответ

Имя:

      
Для отправки сообщений необходимо включить JavaScript
Показать сообщения:    

Текущее время: 04-Дек 00:53

Часовой пояс: UTC + 3


Вы можете начинать темы
Вы можете отвечать на сообщения
Вы не можете редактировать свои сообщения
Вы не можете удалять свои сообщения
Вы не можете голосовать в опросах
Вы не можете прикреплять файлы к сообщениям
Вы можете скачивать файлы