Муравьиный лев / Жук-скакун / Doodlebug (Кристофер Нолан / Christopher Nolan) [1997, Великобритания, короткометражка, фэнтези, BDRemux 1080i]


Статистика раздачи [Обновить пиров]
Размер:  735 MB   |    Зарегистрирован:  1 год 2 месяца   |    Скачан:  0 раз

Полного источника не было: Никогда

 
   
 
 
 

[Цитировать]

Муравьиный лев / Жук-скакун / Doodlebug
Страна: Великобритания
Жанр: короткометражка, фэнтези
Год выпуска: 1997
Продолжительность: 00:02:56
Перевод: Не требуется
Cубтитры: нет
Режиссер: Кристофер Нолан / Christopher Nolan
В ролях: Джереми Теобалд
Описание: Первый фильм Кристофера Нолана.
Казалось бы, что может быть необычного в том, что человек пытается убить муравья, но это только на первый взгляд…
Доп. информация:


Сэмпл: http://www.sendspace.com/file/f5jtcm
Тип релиза: BDRemux 1080i
Контейнер: MKV
Видео: H.264, 1920x1080 (16:9), L4.1, 29.970fps, 35Mbps
Аудио: AC3, 48000Hz, 2ch, 192kbps

MediaInfo

Общее
Уникальный идентификатор : 176958585770060034747686680352414576147 (0x8520FBE283E3BEFD8B633C413DF52E13)
Полное имя : D:\Doodlebug 1997 1080i Blu-ray Remux AVC DD 2.0 - KRaLiMaRKo\Doodlebug 1997 1080i Blu-ray Remux AVC DD 2.0 - KRaLiMaRKo.mkv
Формат : Matroska
Версия формата : Version 4 / Version 2
Размер файла : 735 Мбайт
Продолжительность : 2 м. 56 с.
Режим общего битрейта : Переменный
Общий поток : 34,9 Мбит/сек
Название фильма : Doodlebug 1997 1080i Blu-ray Remux AVC DD 2.0 - KRaLiMaRKo
Дата кодирования : UTC 2010-02-22 21:41:31
Программа кодирования : mkvmerge v5.9.0 ('On The Loose') built on Dec 9 2012 15:37:01
Библиотека кодирования : libebml v1.3.0 + libmatroska v1.4.0
Видео
Идентификатор : 1
Формат : AVC
Формат/Информация : Advanced Video Codec
Профиль формата : High@L4.1
Параметр CABAC формата : Да
Параметр ReFrames формата : 4 кадра
Параметр GOP формата : M=3, N=24
Идентификатор кодека : V_MPEG4/ISO/AVC
Продолжительность : 2 м. 56 с.
Вид битрейта : Переменный
Битрейт : 34,0 Мбит/сек
Максимальный битрейт : 37,0 Мбит/сек
Ширина : 1920 пикселей
Высота : 1080 пикселей
Соотношение сторон : 16:9
Режим частоты кадров : Постоянный
Частота кадров : 29,970 кадров/сек
Цветовое пространство : YUV
Субдискретизация насыщенности : 4:2:0
Битовая глубина : 8 бит
Тип развёртки : MBAFF
Бит/(Пиксели*Кадры) : 0.547
Размер потока : 716 Мбайт (97%)
Язык : English
Default : Да
Forced : Нет
Аудио
Идентификатор : 2
Формат : AC-3
Формат/Информация : Audio Coding 3
Расширение режима : CM (complete main)
Параметр Endianness формата : Big
Идентификатор кодека : A_AC3
Продолжительность : 2 м. 56 с.
Вид битрейта : Постоянный
Битрейт : 192 Кбит/сек
Каналы : 2 канала
Расположение каналов : Front: L R
Частота : 48,0 КГц
Битовая глубина : 16 бит
Метод сжатия : С потерями
Размер потока : 4,05 Мбайт (1%)
Язык : English
Default : Да
Forced : Нет

Скриншоты

[teatrix.ru].t4132.torrent 
Торрент: Зарегистрирован [ 2015-10-07 12:13 ] · 805B7AF1DE05A2C933EE3C0FBC9A8D997B673423

Скачать .torrent

Скачать

15 KB

Статус: проверено
Скачан: 0 раз
Размер: 735 MB
terms.php



Быстрый ответ

Имя:

      
Для отправки сообщений необходимо включить JavaScript
Показать сообщения:    

Текущее время: 08-Дек 17:25

Часовой пояс: UTC + 3


Вы можете начинать темы
Вы можете отвечать на сообщения
Вы не можете редактировать свои сообщения
Вы не можете удалять свои сообщения
Вы не можете голосовать в опросах
Вы не можете прикреплять файлы к сообщениям
Вы можете скачивать файлы