Крик омара / Le cri du homard / The Lobster\'s Cry (Николя Гюйо / Nicolas Guiot) [2012, Франция, Бельгия, психологическая драма, короткий метр, DVB] Original (Fre, Rus) + Sub (rus, fre hard, Eclair Group)


Статистика раздачи [Обновить пиров]
Размер:  604 MB   |    Зарегистрирован:  1 год 2 месяца   |    Скачан:  1 раз

Полного источника не было: 7 месяцев 13 дней

 
   
 
 
 

[Цитировать]

Крик омара
Le cri du homard / The Lobster's Cry- Страна: Франция, Бельгия
Жанр: психологическая драма, короткий метр
Год выпуска: 2012
Продолжительность: 00:30:51
Перевод: Субтитры (компания Éclair Group)
Cубтитры: русские, французские
Оригинальная аудиодорожка: французский, русский (фильм двуязычный: диалоги на французском и русском языках)
Режиссер: Николя Гюйо / Nicolas Guiot
В ролях: Клер Тумелу / Claire Thoumelou (Natalia), Татьяна Гончарова / Tatiana Gontcharova (Mother), Антон Куземин / Anton Kouzemin (Boris), Миглен Миртчев / Miglen Mirtchev (Father)
Описание: Не так давно эмигрировавшая из России во Францию семья осваивается на новом месте. Шестилетняя Наталья ждет возвращения старшего брата Бориса, отправившегося воевать в Чечню. И этот день настает. Борис возвращается в семью живым и здоровым. Но вскоре радость девочки сменяется разочарованием – неужели этот человек на самом деле ее горячо любимый брат, которого она так хорошо помнит с самого детства?
Доп. информация: Собственная запись со спутника (канал TV5MONDE). Во время русской речи на экране вшитые французские субтитры.
Награды: "Сезар" 2013 за лучшую короткометражку; Гран-при Brussels Short Film Festival 2012; 2 награды Festival Européen du Film Court de Brest 2012 (лучший режиссерский дебют, лучшая актриса - Claire Thoumelou); приз за лучшую короткометражку Festival MEDIA 10-10 (Namur, Belgique) 2012; 2 награды Festival du Film de Saint-Paul-Trois-Chateaux 2012 (приз молодежного жюри, приз Зрительских симпатий); приз Studio L’Equipe - Brussels Film Festival 2012 за лучшую короткометражку; 2 награды Festival Le court en dit long (Paris) 2012 (лучший сценарий, приз "От всего сердца / Coup de cœur RTBF").
Информация: http://www.imdb.com/title/tt2150716/
Сэмпл: http://multi-up.com/803029
Качество видео: DVB
Формат видео: MPG
Видео: MPEG Video 2, 720x576@1024x576 (16:9), 25 fps, ~2490 kbps avg
Аудио: 48 kHz, MPEG Audio 2, 2 ch, ~192.00 kbps avg
Формат субтитров: hardsub (неотключаемые)

MediaInfo

Полное имя : H:\My Torrents\[apreder]MINI_MOVIE_008\[apreder]MM_Le_cri_du_homard(2012)DVB.mpgФормат : MPEG-PSРазмер файла : 604 МбайтПродолжительность : 30 м.Режим общего битрейта : ПеременныйОбщий поток : 2736 Кбит/сек
ВидеоИдентификатор : 224 (0xE0)Формат : MPEG VideoВерсия формата : Version 2Профиль формата : Main@MainПараметр BVOP формата : ДаПараметр матрицы формата : ВыборочнаяПараметр GOP формата : M=3, N=24Продолжительность : 30 м.Вид битрейта : ПеременныйБитрейт : 2490 Кбит/секШирина : 720 пикселейВысота : 576 пикселейСоотношение сторон : 16:9Частота кадров : 25,000 кадров/секСтандарт вещания : PALЦветовое пространство : YUVСубдискретизация насыщенности : 4:2:0Битовая глубина : 8 битТип развёртки : ПрогрессивнаяПорядок развёртки : Верхнее поле первоеМетод сжатия : С потерямиБит/(Пиксели*Кадры) : 0.240Размер потока : 550 Мбайт (91%)
АудиоИдентификатор : 192 (0xC0)Формат : MPEG AudioВерсия формата : Version 1Профиль формата : Layer 2Продолжительность : 30 м.Вид битрейта : ПостоянныйБитрейт : 192 Кбит/секКаналы : 2 каналаЧастота : 48,0 КГцМетод сжатия : С потерямиРазмер потока : 42,4 Мбайт (7%)

Скриншот c названием фильма

Скриншоты


Скриншоты анаморфированные


-506/488√
[teatrix.ru].t4134.torrent 
Торрент: Зарегистрирован [ 2015-10-07 12:13 ] · 98084B1E0F12BF37F020BBE172B384DF61F2954B

Скачать .torrent

Скачать

12 KB

Статус: проверено
Скачан: 1 раз
Размер: 604 MB
terms.php



Быстрый ответ

Имя:

      
Для отправки сообщений необходимо включить JavaScript
Показать сообщения:    

Текущее время: 11-Дек 07:12

Часовой пояс: UTC + 3


Вы можете начинать темы
Вы можете отвечать на сообщения
Вы не можете редактировать свои сообщения
Вы не можете удалять свои сообщения
Вы не можете голосовать в опросах
Вы не можете прикреплять файлы к сообщениям
Вы можете скачивать файлы