Дни без света / Dias sin luz / Días sin luz / Days Without Light (Хайме Балагуэро / Jaume Balaguero / Jaume Balagueró) [1995, Испания, символизм, сюрреализм, ужасы, кроткий метр, SATRip] VO (viktor 2838) + Original (Spa)


Статистика раздачи [Обновить пиров]
Размер:  205 MB   |    Зарегистрирован:  1 год 1 месяц   |    Скачан:  0 раз

Полного источника не было: Никогда

 
   
 
 
 

[Цитировать]

Дни без света
Días sin luz / Days Without Light- Страна: Испания
Жанр: символизм, сюрреализм, ужасы, кроткий метр
Год выпуска: 1995
Продолжительность: 00:10:46
Перевод: Одноголосый закадровый (перевод 1111111..., озвучка viktor_2838)
Cубтитры: нет
Оригинальная аудиодорожка: испанский
Режиссер: Хайме Балагуэро / Jaume Balagueró
В ролях: Алейкс Форс / Aleix Fors (Ulises niño), Мария Бьянко / María Bianco (Madre), Педро Антонио Сегура / Pedro Antonio Segura (Padre), Тони Серрано / Toñi Serrano (Madre adoptiva), Джоан Спин / Joan Spin (Padre adoptivo), Хуан-Антонио Боррелла / Juan Antonio Borrella (Ulises adulto), Фернандо Рамос / Fernando Ramos (Ginecólogo), Елена Глориа / Elena Gloria (Monja), Наталиа Креспо / Natalia Crespo (Enfermera 1.), Вирджиния Грис / Virginia Gris (Enfermera 2.), Ана Луна / Ana Luna (Angel)
Описание: Почему матери бросают своих детей? В своей второй короткометражке Хайме Белагуэро продолжает исследование темных сторон человеческой психики и показывает трагическую историю мальчика его рано повзрослевшими глазами – это боль, одиночество, страх, бактериологическая война, воспоминания, которые хотелось бы забыть ребенку, после потери родителей попавшему в пару садомазохистских женских рук…
Доп. информация: Файл получен через groups.yahoo. Добавлена озвучка viktor_2838.
Награда: приз Зрительских симпатий Sweden Fantastic Film Festival 1998 за лучшую короткометражку.
Информация: http://www.imdb.com/title/tt0303944/
Сэмпл: http://multi-up.com/798979
Качество видео: SATRip
Формат видео: AVI
Видео: XviD, 704x400 (1.76:1), 25 fps, ATI YVU12 4:2:0 Planar ~2258 kbps avg, 0.32 bit/pixel
Аудио 1: Русский (48 kHz, MPEG Layer 3, 2 ch, ~192.00 kbps avg)
Аудио 2: Испанский ( 48 kHz, MPEG Layer 3, 2 ch, ~192.00 kbps avg)

MediaInfo

Полное имя : H:\My Torrents\[apreder]MINI_MOVIE_008\[apreder]MM_Days_Without_Light(1995)SATRip.aviФормат : AVIФормат/Информация : Audio Video InterleaveРазмер файла : 205 МбайтПродолжительность : 10 м.Общий поток : 2657 Кбит/секПрограмма кодирования : VirtualDubMod 1.5.10.3 | www.virtualdub-fr.org || (build 2550/release)Библиотека кодирования : VirtualDubMod build 2550/release
ВидеоИдентификатор : 0Формат : MPEG-4 VisualПрофиль формата : Advanced Simple@L5Параметр BVOP формата : 2Параметр QPel формата : НетПараметр GMC формата : Без точки переходаПараметр матрицы формата : Default (H.263)Режим смешивания : Сжатый битовый потокИдентификатор кодека : XVIDИдентификатор кодека/Подсказка : XviDПродолжительность : 10 м.Битрейт : 2258 Кбит/секШирина : 704 пикселяВысота : 400 пикселейСоотношение сторон : 16:9Соотношение сторон в оригинале : 16:9Частота кадров : 25,000 кадров/секЦветовое пространство : YUVСубдискретизация насыщенности : 4:2:0Битовая глубина : 8 битТип развёртки : ПрогрессивнаяМетод сжатия : С потерямиБит/(Пиксели*Кадры) : 0.321Размер потока : 174 Мбайт (85%)Библиотека кодирования : XviD 64
Аудио #1Идентификатор : 1Формат : MPEG AudioВерсия формата : Version 1Профиль формата : Layer 3Режим : Joint stereoРасширение режима : MS StereoИдентификатор кодека : 55Идентификатор кодека/Подсказка : MP3Продолжительность : 10 м.Вид битрейта : ПостоянныйБитрейт : 192 Кбит/секКаналы : 2 каналаЧастота : 48,0 КГцМетод сжатия : С потерямиЗадержка видео : 16 мс.Размер потока : 14,8 Мбайт (7%)Выравнивание : Разделение по промежуткамПродолжительность промежутка : 40 мс. (1,00 видеокадр)Время предзагрузки промежутка : 504 мс.
Аудио #2Идентификатор : 2Формат : MPEG AudioВерсия формата : Version 1Профиль формата : Layer 3Режим : Joint stereoРасширение режима : MS StereoИдентификатор кодека : 55Идентификатор кодека/Подсказка : MP3Продолжительность : 10 м.Вид битрейта : ПостоянныйБитрейт : 192 Кбит/секКаналы : 2 каналаЧастота : 48,0 КГцМетод сжатия : С потерямиЗадержка видео : 8 мс.Размер потока : 14,8 Мбайт (7%)Выравнивание : Разделение по промежуткамПродолжительность промежутка : 40 мс. (1,00 видеокадр)Время предзагрузки промежутка : 500 мс.

Скриншот c названием фильма

Скриншоты


Скриншоты - резерв


-491/473√
[teatrix.ru].t4135.torrent 
Торрент: Зарегистрирован [ 2015-10-07 12:13 ] · BAC67A3796884A7C9BAF507E29693E8A210A36A1

Скачать .torrent

Скачать

16 KB

Статус: проверено
Скачан: 0 раз
Размер: 205 MB
terms.php



Быстрый ответ

Имя:

      
Для отправки сообщений необходимо включить JavaScript
Показать сообщения:    

Текущее время: 03-Дек 14:32

Часовой пояс: UTC + 3


Вы можете начинать темы
Вы можете отвечать на сообщения
Вы не можете редактировать свои сообщения
Вы не можете удалять свои сообщения
Вы не можете голосовать в опросах
Вы не можете прикреплять файлы к сообщениям
Вы можете скачивать файлы