Дорога на... (Таисия Игуменцева) [2011, комедия, короткометражный, SATRip]


Статистика раздачи [Обновить пиров]
Размер:  241 MB   |    Зарегистрирован:  1 год 2 месяца   |    Скачан:  0 раз

Полного источника не было: Никогда

 
   
 
 
 

[Цитировать]

Дорога на...
Жанр: комедия, короткометражный
Год выпуска: 2011
Продолжительность: 0:31:45
Режиссёр: Таисия Игуменцева
В ролях: Сергей Аброскин, Анна Рудь, Сергей Подколзин, Владимир Гориславец
Описание: Фильм рассказывает о тридцатилетнем менеджере, который вечерами надевает свой лучший костюм, выходит во двор и громко посылает всех на...
«От собственной несвободы мы становимся одинокими. Есть разные способы переступать через себя, попытаться заявить о себе и найти кого-то похожего на себя. Я сама через это прошла. “Дорога на...” — фильм о внутренней несвободе и одиночестве людей в большом городе». Таисия Игуменцева.
Качество видео: SATRip
Формат видео: AVI
Видео: 720x400 (1.80:1), 25 fps, XviD MPEG-4 ~923 kbps avg, 0.13 bit/pixe
Аудио: 44.100 kHz, MPEG Layer 3, 2 ch, ~128.00 kbps avg

MediaInfo

General
Complete name : D:\Дорога На .avi
Format : AVI
Format/Info : Audio Video Interleave
File size : 241 MiB
Duration : 31mn 45s
Overall bit rate : 1 061 Kbps
Movie name : фильм Дорога На Таисии Игуменцевой.flv
Director : created.with.SUPER(C).v2012.bld.53
Writing application : VirtualDubMod 1.5.10.2 (build 2540/release)
Writing library : VirtualDubMod build 2540/release
Video
ID : 0
Format : MPEG-4 Visual
Format profile : Advanced Simple@L5
Format settings, BVOP : 2
Format settings, QPel : No
Format settings, GMC : No warppoints
Format settings, Matrix : Custom
Muxing mode : Packed bitstream
Codec ID : XVID
Codec ID/Hint : XviD
Duration : 31mn 45s
Bit rate : 924 Kbps
Width : 720 pixels
Height : 400 pixels
Display aspect ratio : 16:9
Frame rate : 25.000 fps
Color space : YUV
Chroma subsampling : 4:2:0
Bit depth : 8 bits
Scan type : Progressive
Compression mode : Lossy
Bits/(Pixel*Frame) : 0.128
Stream size : 210 MiB (87%)
Writing library : XviD 65
Audio
ID : 1
Format : MPEG Audio
Format version : Version 1
Format profile : Layer 3
Codec ID : 55
Codec ID/Hint : MP3
Duration : 31mn 45s
Bit rate mode : Constant
Bit rate : 128 Kbps
Channel(s) : 2 channels
Sampling rate : 44.1 KHz
Compression mode : Lossy
Stream size : 29.1 MiB (12%)
Alignment : Split accross interleaves
Interleave, duration : 40 ms (1.00 video frame)
Interleave, preload duration : 500 ms
Writing library : LAME3.96r
Encoding settings : -m s -V 4 -q 3 -lowpass 17.5 -b 128

Скриншот c названием фильма

Скриншоты

[teatrix.ru].t4136.torrent 
Торрент: Зарегистрирован [ 2015-10-07 12:13 ] · 4E3E8FD07DF3372DFE8A090F99F8761151F35BBE

Скачать .torrent

Скачать

19 KB

Статус: проверено
Скачан: 0 раз
Размер: 241 MB
terms.php



Быстрый ответ

Имя:

      
Для отправки сообщений необходимо включить JavaScript
Показать сообщения:    

Текущее время: 09-Дек 16:31

Часовой пояс: UTC + 3


Вы можете начинать темы
Вы можете отвечать на сообщения
Вы не можете редактировать свои сообщения
Вы не можете удалять свои сообщения
Вы не можете голосовать в опросах
Вы не можете прикреплять файлы к сообщениям
Вы можете скачивать файлы