Зимняя лягушка / Grenouille d\'hiver / Winter Frog (Слони Соу / Slony Sow) [2011, Франция, драма, короткий метр, DVB] Original (Fre) + Sub (ru hard, Миронова, Eclair Group)


Статистика раздачи [Обновить пиров]
Размер:  344 MB   |    Зарегистрирован:  1 год 2 месяца   |    Скачан:  1 раз

Полного источника не было: 2 месяца 19 дней

 
   
 
 
 

[Цитировать]

Зимняя лягушка
Grenouille d'hiver / Winter Frog- Страна: Франция
Жанр: драма, короткий метр
Год выпуска: 2011
Продолжительность: 00:16:56
Перевод: Субтитры (перевод Д. Мироновой, Éclair Group)
Cубтитры: русские
Оригинальная аудиодорожка: французский
Режиссер: Слони Соу / Slony Sow
В ролях: Жерар Депардье / Gérard Depardieu (Benjamin), Эрико Такеда / Eriko Takeda (Miko), Сабин Леноэль / Sabine Lenoël (Louise)
Описание: Удивительно тонкий и филигранно выстроенный фильм молодого французского актера и режиссера арабского происхождения Слони Соу использует взаимосвязь культур, чтобы показать возможность преодоления неизбывности самоотчуждения в результате потери близкого человека.
После продолжительной болезни на руках винодела Бенжамена умирает его жена. Для него жизнь теряет смысл и остается только одно стремление – смерть. Но пришедшая на заранее договоренную дегустацию японка, ненавязчиво используя духовное взаимодействие, помогает ему оплакать свое горе.
Доп. информация: Собственная запись со спутника (канал TV5MONDE, пакет НТВ+).
Награды: приз "От всего сердца / Coup de cœur" Cannes Film Festival 2011 в секции короткометражных фильмов; Гран-при жюри "Эмоция" Festival du Court-Métrage de Fontainebleau 2011; приз лучшему актеру Fano International Film Festival 2011; награда продюсеру HBO Films Producer Award - Savannah Film Festival (USA) 2011; 3 награды Angel Film Award (Monaco) 2011 (лучший режиссер, лучший актер - Gérard Depardieu, музыка); приз "Золотой медведь" Festival des Nations d'Ebensee 2012; еще более 10 наград МКФ.
Информация: http://www.imdb.com/title/tt1942136/
Сэмпл: http://multi-up.com/792259
Качество видео: DVB
Формат видео: MPG
Видео: MPEG Video 2, 720x576@1024x576 (16:9), 25 fps, ~2594 kbps
Аудио: Французский (48 kHz, MPEG Audio 2, 2 ch, ~192.00 kbps avg)
Формат субтитров: hardsub (неотключаемые)

MediaInfo

Полное имя : H:\My Torrents\[apreder]MINI_MOVIE_008\[apreder]MM_Grenouille_d'hiver(2011)DVB.mpgФормат : MPEG-PSРазмер файла : 344 МбайтПродолжительность : 16 м.Режим общего битрейта : ПеременныйОбщий поток : 2843 Кбит/сек
ВидеоИдентификатор : 224 (0xE0)Формат : MPEG VideoВерсия формата : Version 2Профиль формата : Main@MainПараметр BVOP формата : ДаПараметр матрицы формата : ВыборочнаяПараметр GOP формата : M=3, N=24Продолжительность : 16 м.Вид битрейта : ПеременныйБитрейт : 2594 Кбит/секШирина : 720 пикселейВысота : 576 пикселейСоотношение сторон : 16:9Частота кадров : 25,000 кадров/секСтандарт вещания : PALЦветовое пространство : YUVСубдискретизация насыщенности : 4:2:0Битовая глубина : 8 битТип развёртки : ПрогрессивнаяПорядок развёртки : Верхнее поле первоеМетод сжатия : С потерямиБит/(Пиксели*Кадры) : 0.250Размер потока : 314 Мбайт (91%)
АудиоИдентификатор : 192 (0xC0)Формат : MPEG AudioВерсия формата : Version 1Профиль формата : Layer 2Продолжительность : 16 м.Вид битрейта : ПостоянныйБитрейт : 192 Кбит/секКаналы : 2 каналаЧастота : 48,0 КГцМетод сжатия : С потерямиЗадержка видео : -96 мс.Размер потока : 23,2 Мбайт (7%)

Скриншот c названием фильма

Скриншоты


Скриншоты анаморфированные


-469/451√
[teatrix.ru].t4138.torrent 
Торрент: Зарегистрирован [ 2015-10-07 12:13 ] · 5D3D71C5B0C55949DF318534B6F3B7B694851338

Скачать .torrent

Скачать

14 KB

Статус: проверено
Скачан: 1 раз
Размер: 344 MB
terms.php



Быстрый ответ

Имя:

      
Для отправки сообщений необходимо включить JavaScript
Показать сообщения:    

Текущее время: 10-Дек 00:20

Часовой пояс: UTC + 3


Вы можете начинать темы
Вы можете отвечать на сообщения
Вы не можете редактировать свои сообщения
Вы не можете удалять свои сообщения
Вы не можете голосовать в опросах
Вы не можете прикреплять файлы к сообщениям
Вы можете скачивать файлы