Дозревший / Late Bloomer (Крэйг Макнейл / Craig Macneill) [2004, США, психоделический триллер, ужасы, черный юмор, короткий метр, DVDRip] Original (Eng) + Sub (Ru soft, problem2000 & vsasha)


Статистика раздачи [Обновить пиров]
Размер:  213 MB   |    Зарегистрирован:  1 год 1 месяц   |    Скачан:  0 раз

Полного источника не было: Никогда

 
   
 
 
 

[Цитировать]

Дозревший
Late Bloomer- Страна: США
Жанр: психоделический триллер, ужасы, черный юмор, короткий метр
Год выпуска: 2004
Продолжительность: 00:12:43
Перевод: Субтитры (problem2000 & vsasha)
Cубтитры: русские
Оригинальная аудиодорожка: английский
Режиссер: Крэйг Макнейл / Craig Macneill
В ролях: Сэм Боренцвейг / Sam Borenzweig (Boy), Лорен Бонд / Lauren Bond (Miss Lovecraft), Тори Маркс / Torey Marks (Classmate), Кортни Мерритт / Courtney Merritt (Larissa Insmouth)
Описание: Сексуальное образование от Лавкрафта. Смешная и зловещая короткометражка рассказывает о первом секс-уроке семиклашек, на котором очень наглядно преподает учительница мисс Лавкрафт. Впечатлительному и наивному двенадцатилетнему ученику на таком уроке становится неуютно и по-настоящему страшно. Женская сексуальность представляется ему чем-то чудовищным и пугающим, подобно рассказам о Ктулху. Фильм не является экранизацией рассказов Лавкрафта как таковой, но имя учительницы и вторая половина фильма явно намекают на источники своего вдохновения. (MEDSMAX)
Доп. информация: файл получен через groups.yahoo
Награды: приз H.P. Lovecraf Film Festival 2004 за лучший короткометражный фильм; приз Зрительских симпатий Lake Placid Film Festival 2004 за лучшую короткометражку; 2 награды Box[ur]Shorts Film Festival 2004 (лучшая короткометражка; приз Зрительских симпатий); приз Montreal Comedia Film Festival 2004 за лучший фильм. Участник Sundance Film Festival 2005 и еще более 30 МКФ.
Информация: http://www.imdb.com/title/tt0411565/
Сэмпл: http://multi-up.com/784455
Качество видео: DVDRip
Формат видео: AVI
Видео: XviD, 640x368 (1.74:1), 23.976 fps, ATI YVU12 4:2:0 Planar ~2139 kbps avg, 0.38 bit/pixel
Аудио: English (48 kHz, MPEG Layer 3, 2 ch, ~192.00 kbps avg)
Формат субтитров: softsub (SRT)

Субтитры

500:00:20,985 --> 00:00:24,995Оно протянулось от одного концакомнаты к другому,
600:00:25,095 --> 00:00:29,105паря над нашими головами,словно готовое наброситься.
700:00:31,106 --> 00:00:35,606Казалось, что нарисованнные мелом когти,готовы схватить
800:00:36,107 --> 00:00:40,807ничего не подозревающего ученикаи унести прочь.
900:00:41,108 --> 00:00:43,908"Что это за дьявольская штуковина?"
1000:00:44,109 --> 00:00:47,709- спросил мой лучший друг Джимми Пикмен.
1100:00:48,110 --> 00:00:51,510"Похоже на осьминога" - ответил я.
1200:00:53,111 --> 00:00:58,611Мисс Лавкрафт нацарапала названиенад этой куполовидной головой
1300:00:59,112 --> 00:01:05,612и призвала класс повторитьтошнотворное обозначение этого существа.
1400:01:05,913 --> 00:01:08,013Повторяйте за мной, дети.
1500:01:08,614 --> 00:01:10,414Это...
1600:01:10,815 --> 00:01:13,515вагина.
1700:01:14,116 --> 00:01:19,516Я вздрогнул от звука этого названия во рту,
1800:01:19,917 --> 00:01:22,117прошептав его вместе с остальными учениками.
1900:01:22,518 --> 00:01:26,818Столетиями погребенное под отходамимоего кишечника,
2000:01:27,019 --> 00:01:32,919оно будто вытянуло себя из самогогрязного уголка желудка,
2100:01:33,420 --> 00:01:39,520поднялось по горлу на волне желчии словно просочилось
2200:01:40,421 --> 00:01:45,621по моему языку своими мягкимии влажными слогами.
2300:01:46,122 --> 00:01:50,122Итак, класс, все девочки рождаются с вагиной.
2400:01:50,523 --> 00:01:54,823В вагине расположена матка, показанная здесь!
2500:01:55,124 --> 00:01:58,424В ней оплодотворенная яйцеклеткапревращается в зародыш.

MediaInfo

Полное имя : H:\My Torrents\[apreder]MINI_MOVIE_008\[apreder]MM_Late_Bloomer(2004)DVDRip\[apreder]MM_Late_Bloomer(2004)DVDRip.aviФормат : AVIФормат/Информация : Audio Video InterleaveРазмер файла : 213 МбайтПродолжительность : 12 м.Общий поток : 2341 Кбит/секПрограмма кодирования : VirtualDubMod 1.5.10.3 | www.virtualdub-fr.org || (build 2550/release)Библиотека кодирования : VirtualDubMod build 2550/release
ВидеоИдентификатор : 0Формат : MPEG-4 VisualПрофиль формата : Advanced Simple@L5Параметр BVOP формата : 2Параметр QPel формата : НетПараметр GMC формата : Без точки переходаПараметр матрицы формата : Default (H.263)Режим смешивания : Сжатый битовый потокИдентификатор кодека : XVIDИдентификатор кодека/Подсказка : XviDПродолжительность : 12 м.Битрейт : 2139 Кбит/секШирина : 640 пикселейВысота : 368 пикселейСоотношение сторон : 4:3Соотношение сторон в оригинале : 1,739Частота кадров : 23,976 кадра/секЦветовое пространство : YUVСубдискретизация насыщенности : 4:2:0Битовая глубина : 8 битТип развёртки : ПрогрессивнаяМетод сжатия : С потерямиБит/(Пиксели*Кадры) : 0.379Размер потока : 195 Мбайт (91%)Библиотека кодирования : XviD 64
АудиоИдентификатор : 1Формат : MPEG AudioВерсия формата : Version 1Профиль формата : Layer 3Режим : Joint stereoРасширение режима : MS StereoИдентификатор кодека : 55Идентификатор кодека/Подсказка : MP3Продолжительность : 12 м.Вид битрейта : ПостоянныйБитрейт : 192 Кбит/секКаналы : 2 каналаЧастота : 48,0 КГцМетод сжатия : С потерямиРазмер потока : 17,5 Мбайт (8%)Выравнивание : Соединение по промежуткамПродолжительность промежутка : 42 мс. (1,00 видеокадр)Время предзагрузки промежутка : 504 мс.Библиотека кодирования : LAME3.98.2

Скриншот c названием фильма

Скриншоты - резерв



-447/429√
[teatrix.ru].t4140.torrent 
Торрент: Зарегистрирован [ 2015-10-07 12:13 ] · 78BE555BFC4AA734D5224CAEEA6331A55BD3D8D2

Скачать .torrent

Скачать

17 KB

Статус: проверено
Скачан: 0 раз
Размер: 213 MB
terms.php



Быстрый ответ

Имя:

      
Для отправки сообщений необходимо включить JavaScript
Показать сообщения:    

Текущее время: 03-Дек 14:39

Часовой пояс: UTC + 3


Вы можете начинать темы
Вы можете отвечать на сообщения
Вы не можете редактировать свои сообщения
Вы не можете удалять свои сообщения
Вы не можете голосовать в опросах
Вы не можете прикреплять файлы к сообщениям
Вы можете скачивать файлы