Улица Фонтен / Rue Fontaine (Филипп Гаррель / Philippe Garrel) [1984, Франция, драма, короткометражка, DVDRip] sub rus


Статистика раздачи [Обновить пиров]
Размер:  299 MB   |    Зарегистрирован:  1 год 2 месяца   |    Скачан:  0 раз

Полного источника не было: Никогда

 
   
 
 
 

[Цитировать]

Улица Фонтен / Rue Fontaine
Страна: Франция
Жанр: драма, короткометражка
Год выпуска: 1984
Продолжительность: 00:17:36
Перевод: Субтитры
Cубтитры: русские (перевод tratatrah)
Оригинальная аудиодорожка: французский
Режиссер: Philippe Garrel / Филипп Гаррель
В ролях: Жан-Пьер Лео, Кристина Буассон, Филипп Гаррель
Описание: Монолог брошенного мужчины, новое знакомство и новые потери...
Доп. информация: Сегмент из фильма "Париж глазами шести: двадцать лет спустя". К сожалению остальные сегменты до сих пор не переведены. Рип был взят с КГ у пользователя assla
Качество видео: DVDRip
Формат видео: AVI
Видео: Video: Xvid 720x528 25.00fps [Stream 00]
Аудио: Audio: Dolby AC3 48000Hz stereo 192kbps [Stream 01]
Формат субтитров: softsub (SRT)

MediaInfo

General
Complete name : C:\Users\93871\Desktop\Гаррель\Rue_Fontaine_Garrel.avi
Format : AVI
Format/Info : Audio Video Interleave
File size : 299 MiB
Duration : 17mn 36s
Overall bit rate : 2 377 Kbps
Writing application : VirtualDubMod 1.5.10.2 (build 2540/release)
Writing library : VirtualDubMod build 2540/release
Video
ID : 0
Format : MPEG-4 Visual
Format profile : Advanced Simple@L5
Format settings, BVOP : 1
Format settings, QPel : No
Format settings, GMC : No warppoints
Format settings, Matrix : Default (MPEG)
Codec ID : XVID
Codec ID/Hint : XviD
Duration : 17mn 36s
Bit rate : 2 176 Kbps
Width : 720 pixels
Height : 528 pixels
Display aspect ratio : 4:3
Frame rate : 25.000 fps
Color space : YUV
Chroma subsampling : 4:2:0
Bit depth : 8 bits
Scan type : Progressive
Compression mode : Lossy
Bits/(Pixel*Frame) : 0.229
Stream size : 274 MiB (92%)
Writing library : XviD 1.2.0.dev47 (UTC 2006-11-01)
Audio
ID : 1
Format : AC-3
Format/Info : Audio Coding 3
Mode extension : CM (complete main)
Codec ID : 2000
Duration : 17mn 36s
Bit rate mode : Constant
Bit rate : 192 Kbps
Channel(s) : 2 channels
Channel positions : Front: L R
Sampling rate : 48.0 KHz
Bit depth : 16 bits
Compression mode : Lossy
Stream size : 24.2 MiB (8%)
Alignment : Split accross interleaves
Interleave, duration : 40 ms (1.00 video frame)
Interleave, preload duration : 500 ms

Скриншот с названием:

Скриншоты:

Пример субтитров:

1
00:00:41,100 --> 00:00:44,400
- Рене, ты в порядке?
- Паршиво!
2
00:00:44,903 --> 00:00:47,861
Мы недавно говорили с Фредом о тебе.
3
00:00:50,175 --> 00:00:52,981
Я вижу его раз в полгода, так что…
4
00:00:54,315 --> 00:00:56,946
Хочешь кофе?
5
00:00:58,932 --> 00:01:01,251
Пойдем Рене, поговорим.
[teatrix.ru].t4142.torrent 
Торрент: Зарегистрирован [ 2015-10-07 12:13 ] · 2A667A268E04A8A691C32FE76BF7B9B4C221E9BC

Скачать .torrent

Скачать

12 KB

Статус: проверено
Скачан: 0 раз
Размер: 299 MB
terms.php



Быстрый ответ

Имя:

      
Для отправки сообщений необходимо включить JavaScript
Показать сообщения:    

Текущее время: 10-Дек 21:35

Часовой пояс: UTC + 3


Вы можете начинать темы
Вы можете отвечать на сообщения
Вы не можете редактировать свои сообщения
Вы не можете удалять свои сообщения
Вы не можете голосовать в опросах
Вы не можете прикреплять файлы к сообщениям
Вы можете скачивать файлы