Маленький нацист / Der kleine Nazi (Петра Люсхоф / Petra Lüschow) [2010, Германия, Комедия, короткий метр, SATRip] MVO


Статистика раздачи [Обновить пиров]
Размер:  163 MB   |    Зарегистрирован:  1 год 1 месяц   |    Скачан:  0 раз

Полного источника не было: Никогда

 
   
 
 
 

[Цитировать]

Маленький нацист / Der kleine Nazi
Страна: Германия
Жанр: Комедия, короткий метр
Год выпуска: 2010
Продолжительность: 00:12:17
Перевод: Профессиональный (многоголосый закадровый)
Cубтитры: нет
Режиссер: Петра Люсхоф / Petra Lüschow
В ролях: Кристине Шорн, Оливер Стоковски, Штеффи Кюнерт, Мария Магдалена Варзиньска, Дэвид Вашманн, Амон Роберт Вендел
Описание: Немецкая семья готовится встретить Рождество, ожидая в гости знакомого из Израиля. Однако из-за выходки бабушки вечер грозит закончиться большим конфузом.

Доп. информация: За предоставление фильма огромное спасибо tengu
Качество видео: SATRip
Формат видео: AVI
Видео: 704x400 (1.76:1), 25 fps, XviD build 50 ~1710 kbps avg, 0.24 bit/pixel
Аудио: 48 kHz, MPEG Layer 3, 2 ch, ~128.00 kbps avg

MediaInfo

General
Complete name : D:\Public\Der.kleine.Nazi.2010.SATRip.avi
Format : AVI
Format/Info : Audio Video Interleave
File size : 163 MiB
Duration : 12mn 17s
Overall bit rate : 1 848 Kbps
Writing application : VirtualDubMod 1.5.10.2 (build 2540/release)
Writing library : VirtualDubMod build 2540/release
Video
ID : 0
Format : MPEG-4 Visual
Format profile : Advanced Simple@L5
Format settings, BVOP : 1
Format settings, QPel : No
Format settings, GMC : No warppoints
Format settings, Matrix : Default (H.263)
Codec ID : XVID
Codec ID/Hint : XviD
Duration : 12mn 17s
Bit rate : 1 710 Kbps
Width : 704 pixels
Height : 400 pixels
Display aspect ratio : 16:9
Frame rate : 25.000 fps
Color space : YUV
Chroma subsampling : 4:2:0
Bit depth : 8 bits
Scan type : Progressive
Compression mode : Lossy
Bits/(Pixel*Frame) : 0.243
Stream size : 150 MiB (93%)
Writing library : XviD 1.2.1 (UTC 2008-12-04)
Audio
ID : 1
Format : MPEG Audio
Format version : Version 1
Format profile : Layer 3
Mode : Joint stereo
Mode extension : MS Stereo
Codec ID : 55
Codec ID/Hint : MP3
Duration : 12mn 17s
Bit rate mode : Constant
Bit rate : 128 Kbps
Channel(s) : 2 channels
Sampling rate : 48.0 KHz
Compression mode : Lossy
Stream size : 11.3 MiB (7%)
Alignment : Split accross interleaves
Interleave, duration : 40 ms (1.00 video frame)
Interleave, preload duration : 500 ms
Writing library : LAME3.97

Скриншот c названием фильма

Скриншоты

[teatrix.ru].t4146.torrent 
Торрент: Зарегистрирован [ 2015-10-07 12:13 ] · 4503E18CA996401D079000CAD7050B292C9636E2

Скачать .torrent

Скачать

13 KB

Статус: проверено
Скачан: 0 раз
Размер: 163 MB
terms.php



Быстрый ответ

Имя:

      
Для отправки сообщений необходимо включить JavaScript
Показать сообщения:    

Текущее время: 03-Дек 05:29

Часовой пояс: UTC + 3


Вы можете начинать темы
Вы можете отвечать на сообщения
Вы не можете редактировать свои сообщения
Вы не можете удалять свои сообщения
Вы не можете голосовать в опросах
Вы не можете прикреплять файлы к сообщениям
Вы можете скачивать файлы