Одна сотая секунды / One Hundredth of a Second (Сьюзэн Джейкобсон / Susan Jacobson) [2006, Великобритания, Драма, военный, короткий метр, DVDRip] MVO


Статистика раздачи [Обновить пиров]
Размер:  77 MB   |    Зарегистрирован:  1 год 2 месяца   |    Скачан:  0 раз

Полного источника не было: Никогда

 
   
 
 
 

[Цитировать]

Одна сотая секунды / One Hundredth of a Second Страна: Великобритания
Жанр: Драма, военный, короткий метр
Год выпуска: 2006
Продолжительность: 00:05:44
Перевод: Профессиональный (многоголосый закадровый)
Cубтитры: нет
Режиссер: Сьюзэн Джейкобсон / Susan Jacobson
В ролях: Хезер Луиз Камерон, Эмма Клисби, Ричард Диллэйн, Лючиано Додеро, Джули Легран, Джонни Палмиеро.
Описание: Молодая талантливая фотожурналист Кейт, подвергая опасности собственную жизнь, пытается донести до мировой общественности потрясающие по своей силе фотографии из самого пекла военных конфликтов. До тех пор, пока одна из фотографий - "Девочка" - не совершит перелом в её жизни...

За предоставление фильма огромная благодарность tengu
Качество видео: DVDRip
Формат видео: AVI
Видео: 704x416 (1.69:1), 25 fps, XviD build 50 ~1676 kbps avg, 0.23 bit/pixel
Аудио: 48 kHz, AC3 Dolby Digital, 2/0 (L,R) ch, ~192 kbps

MediaInfo

General
Complete name : D:\Public\One_Hundredth_of_a_Second.2006.DVDRip.avi
Format : AVI
Format/Info : Audio Video Interleave
File size : 77.0 MiB
Duration : 5mn 44s
Overall bit rate : 1 879 Kbps
Writing application : VirtualDubMod 1.5.10.2 (build 2540/release)
Writing library : VirtualDubMod build 2540/release
Video
ID : 0
Format : MPEG-4 Visual
Format profile : Advanced Simple@L5
Format settings, BVOP : 1
Format settings, QPel : No
Format settings, GMC : No warppoints
Format settings, Matrix : Default (H.263)
Codec ID : XVID
Codec ID/Hint : XviD
Duration : 5mn 44s
Bit rate : 1 677 Kbps
Width : 704 pixels
Height : 416 pixels
Display aspect ratio : 1.692
Frame rate : 25.000 fps
Color space : YUV
Chroma subsampling : 4:2:0
Bit depth : 8 bits
Scan type : Progressive
Compression mode : Lossy
Bits/(Pixel*Frame) : 0.229
Stream size : 68.8 MiB (89%)
Writing library : XviD 1.2.1 (UTC 2008-12-04)
Audio
ID : 1
Format : AC-3
Format/Info : Audio Coding 3
Mode extension : CM (complete main)
Codec ID : 2000
Duration : 5mn 43s
Bit rate mode : Constant
Bit rate : 192 Kbps
Channel(s) : 2 channels
Channel positions : Front: L R
Sampling rate : 48.0 KHz
Bit depth : 16 bits
Compression mode : Lossy
Stream size : 7.87 MiB (10%)
Alignment : Split accross interleaves
Interleave, duration : 40 ms (1.00 video frame)
Interleave, preload duration : 500 ms

Скриншот c названием фильма

Скриншоты

[teatrix.ru].t4147.torrent 
Торрент: Зарегистрирован [ 2015-10-07 12:13 ] · F02EAAA1CFE927B3B995C1BAE41DCFDA64A547DE

Скачать .torrent

Скачать

13 KB

Статус: проверено
Скачан: 0 раз
Размер: 77 MB
terms.php



Быстрый ответ

Имя:

      
Для отправки сообщений необходимо включить JavaScript
Показать сообщения:    

Текущее время: 07-Дек 17:29

Часовой пояс: UTC + 3


Вы можете начинать темы
Вы можете отвечать на сообщения
Вы не можете редактировать свои сообщения
Вы не можете удалять свои сообщения
Вы не можете голосовать в опросах
Вы не можете прикреплять файлы к сообщениям
Вы можете скачивать файлы