Каждому свое / Igaühele oma (Харди Волмер / Hardi Volmer) [1990, СССР, Драма, трагикомедия, короткий метр, DVDScreener] Dub


Статистика раздачи [Обновить пиров]
Размер:  454 MB   |    Зарегистрирован:  1 год 1 месяц   |    Скачан:  0 раз

Полного источника не было: Никогда

 
   
 
 
 

[Цитировать]

Каждому свое / Igaühele oma Страна: СССР
Жанр: Драма, трагикомедия, короткий метр
Год выпуска: 1990
Продолжительность: 00:33:13
Перевод: Профессиональный (дублированный)
Cубтитры: нет
Режиссер: Харди Волмер / Hardi Volmer
В ролях: Андрус Ваарик, Ангелина Семенова, Рихо Унт, Пеэтер Симм, Хейки Эрнитс, Калью Киви, Арво Кукумяги, Отт Ардер.
Описание: Гротеск-трагикомедия известного эстонского режиссера, музыканта, певца, аниматора и продюсера Харди Волмера. Эстония в бурную эпоху перемен. Гражданин А, скромный нерешительный человек, с большим трудом и внутренним страхом вписывается в изменившиеся реалии окружающего мира. И постоянно попадает в различные абсурдные ситуации.

Доп. информация: Релиз киноклуба
Спасибо johnnyleo за подготовку раздачи.

Качество видео: DVDScreener
Формат видео: AVI
Видео: 720x528 (1.36:1), 25 fps, DivX Codec 4.x ~1773 kbps avg, 0.19 bit/pixel
Аудио: 48 kHz, MPEG Layer 3, 2 ch, ~128.00 kbps avg

MediaInfo

General
Complete name : D:\Public\Igauhele oma (1990).avi
Format : AVI
Format/Info : Audio Video Interleave
File size : 454 MiB
Duration : 33mn 13s
Overall bit rate : 1 911 Kbps
Writing application : VirtualDubMod 1.5.10.2 (build 2540/release)
Writing library : VirtualDubMod build 2540/release
Video
ID : 0
Format : MPEG-4 Visual
Format profile : Advanced Simple@L5
Format settings, BVOP : 2
Format settings, QPel : No
Format settings, GMC : No warppoints
Format settings, Matrix : Default (MPEG)
Codec ID : DX50
Codec ID/Hint : DivX 5
Duration : 33mn 13s
Bit rate : 1 773 Kbps
Width : 720 pixels
Height : 528 pixels
Display aspect ratio : 4:3
Frame rate : 25.000 fps
Color space : YUV
Chroma subsampling : 4:2:0
Bit depth : 8 bits
Scan type : Progressive
Compression mode : Lossy
Bits/(Pixel*Frame) : 0.187
Stream size : 421 MiB (93%)
Writing library : XviD 64
Audio
ID : 1
Format : MPEG Audio
Format version : Version 1
Format profile : Layer 3
Mode : Joint stereo
Mode extension : MS Stereo
Codec ID : 55
Codec ID/Hint : MP3
Duration : 33mn 12s
Bit rate mode : Constant
Bit rate : 128 Kbps
Channel(s) : 2 channels
Sampling rate : 48.0 KHz
Compression mode : Lossy
Delay relative to video : 24ms
Stream size : 30.4 MiB (7%)
Alignment : Aligned on interleaves
Interleave, duration : 40 ms (1.00 video frame)
Interleave, preload duration : 504 ms

Скриншот c названием фильма

Скриншоты

[teatrix.ru].t4149.torrent 
Торрент: Зарегистрирован [ 2015-10-07 12:13 ] · 6F5CE91654D07ADB3281D5774CCDA0A1A9A8D2CF

Скачать .torrent

Скачать

18 KB

Статус: проверено
Скачан: 0 раз
Размер: 454 MB
terms.php



Быстрый ответ

Имя:

      
Для отправки сообщений необходимо включить JavaScript
Показать сообщения:    

Текущее время: 05-Дек 07:29

Часовой пояс: UTC + 3


Вы можете начинать темы
Вы можете отвечать на сообщения
Вы не можете редактировать свои сообщения
Вы не можете удалять свои сообщения
Вы не можете голосовать в опросах
Вы не можете прикреплять файлы к сообщениям
Вы можете скачивать файлы