Ты ли это? / Is it you? (Варвара Джуманджи) [2012, Россия, комедия, короткий метр, HDRip] Original Rus


Статистика раздачи [Обновить пиров]
Размер:  1.68 GB   |    Зарегистрирован:  1 год 1 месяц   |    Скачан:  0 раз

Полного источника не было: Никогда

 
   
 
 
 

[Цитировать]

Ты ли это? / Is it you?
Страна: Россия
Жанр: комедия
Год выпуска: 2012
Продолжительность: 00:18:06
Перевод: Не требуется
Cубтитры: нет
Оригинальная аудиодорожка: русский
Режиссер: Варвара Джуманджи
В ролях: Дмитрий Зеленков
Описание: Асоциальная интеллектуальная комедия
Качество видео: HDRip
Формат видео: AVI
Видео: Video: 1920x1080 (1.78:1), 25 fps, XviD build 50 ~13060 kbps avg, 0.25 bit/pixel
Аудио: Audio: 44.100 kHz, MPEG Layer 3, 2 ch, ~192.00 kbps avg

MediaInfo

General
Format : AVI
Format/Info : Audio Video Interleave
Format profile : OpenDML
File size : 1.68 GiB
Duration : 18mn 6s
Overall bit rate : 13.3 Mbps
Writing application : MEncoder SVN-r30881(20100311-gcc4.3.3)
Writing library : MPlayer
Video
ID : 0
Format : MPEG-4 Visual
Format profile : Advanced Simple@L5
Format settings, BVOP : 2
Format settings, QPel : No
Format settings, GMC : No warppoints
Format settings, Matrix : Default (H.263)
Codec ID : XVID
Codec ID/Hint : XviD
Duration : 18mn 5s
Bit rate : 13.1 Mbps
Width : 1 920 pixels
Height : 1 080 pixels
Display aspect ratio : 16:9
Frame rate : 25.000 fps
Color space : YUV
Chroma subsampling : 4:2:0
Bit depth : 8 bits
Scan type : Progressive
Compression mode : Lossy
Bits/(Pixel*Frame) : 0.252
Stream size : 1.65 GiB (98%)
Writing library : XviD 1.2.1 (UTC 2008-12-04)
Audio
ID : 1
Format : MPEG Audio
Format version : Version 1
Format profile : Layer 3
Mode : Joint stereo
Mode extension : MS Stereo
Codec ID : 55
Codec ID/Hint : MP3
Duration : 18mn 6s
Bit rate mode : Constant
Bit rate : 192 Kbps
Channel(s) : 2 channels
Sampling rate : 44.1 KHz
Compression mode : Lossy
Delay relative to video : 40ms
Stream size : 24.9 MiB (1%)
Alignment : Aligned on interleaves
Interleave, duration : 26 ms (0.65 video frame)
Interleave, preload duration : 522 ms
Writing library : LAME3.98

Скриншот c названием фильма

Скриншоты

[teatrix.ru].t4151.torrent 
Торрент: Зарегистрирован [ 2015-10-07 12:13 ] · 1792DD0073FA70C2C2DC7FDA154310E3FCC75E5D

Скачать .torrent

Скачать

17 KB

Статус: проверено
Скачан: 0 раз
Размер: 1.68 GB
terms.php



Быстрый ответ

Имя:

      
Для отправки сообщений необходимо включить JavaScript
Показать сообщения:    

Текущее время: 03-Дек 01:19

Часовой пояс: UTC + 3


Вы можете начинать темы
Вы можете отвечать на сообщения
Вы не можете редактировать свои сообщения
Вы не можете удалять свои сообщения
Вы не можете голосовать в опросах
Вы не можете прикреплять файлы к сообщениям
Вы можете скачивать файлы