Женщина о 100 головах, или Потерявшая голову / La femme 100 têtes (Эрик Дювивье / Eric Duvivier) [1968, Франция, сюрреализм, DVDRip-AVC] Sub Rus, Eng + Original Fre


Статистика раздачи [Обновить пиров]
Размер:  395 MB   |    Зарегистрирован:  1 год 1 месяц   |    Скачан:  0 раз

Полного источника не было: Никогда

 
   
 
 
 

[Цитировать]

Женщина о 100 головах, или Потерявшая голову / La femme 100 têtes
Страна: Франция
Жанр: сюрреализм
Год выпуска: 1968
Продолжительность: 00:19:20
Перевод: Субтитры Доп. инфо о переводе 1111111...
Cубтитры: русские, английские
Оригинальная аудиодорожка: французский
Режиссер: Эрик Дювивье / Eric Duvivier
В ролях: Жан Серве / Jean Servais
Описание: Фильм снят по одноименной книге-коллажу известного художника авангардиста Макса Эрнста, работавшего с Луисом Бунюэлем и Сальвадором Дали над классикой сюрреализма - фильмом Андалузский пес.
В 1968 году Эрик Дювивье перенес графические фантазии Эрнста на кинопленку, создав необычайный "кинопоток сознания" под сомнамбулический текст.
отдельное спасибо smkoloss
Доп. информация: http://www.imdb.com/title/tt1661393/
Сэмпл: http://multi-up.com/751508
Качество видео: DVDRip-AVC
Формат видео: MKV
Видео: H.264, 706x572 (4:3), 25.00fps, 2577kbps, 0.255bit/pixel
Аудио: AC3, 48000Hz, 2ch, 224kbps

MediaInfo

Complete name : C:\La.Femme.100.Tetes.mkv
Format : Matroska
File size : 395 MiB
Duration : 19mn 20s
Overall bit rate : 2 853 Kbps
Encoded date : UTC 2012-08-25 21:11:17
Writing application : mkvmerge v5.7.0 ('The Whirlwind') built on Jul 8 2012 20:08:51
Writing library : libebml v1.2.3 + libmatroska v1.3.0
Video #1
ID : 1
Format : AVC
Format/Info : Advanced Video Codec
Format profile : Main@L3.0
Format settings, CABAC : Yes
Format settings, ReFrames : 4 frames
Muxing mode : Header stripping
Codec ID : V_MPEG4/ISO/AVC
Duration : 19mn 20s
Bit rate : 2 572 Kbps
Width : 706 pixels
Height : 572 pixels
Display aspect ratio : 4:3
Original display aspect ratio : 4:3
Frame rate mode : Variable
Frame rate : 25.000 fps
Color space : YUV
Chroma subsampling : 4:2:0
Bit depth : 8 bits
Scan type : Progressive
Bits/(Pixel*Frame) : 0.255
Stream size : 356 MiB (90%)
Writing library : x264 core 112
Encoding settings : cabac=1 / ref=2 / deblock=1:0:0 / analyse=0x1:0x111 / me=hex / subme=6 / psy=1 / psy_rd=1.00:0.00 / mixed_ref=0 / me_range=16 / chroma_me=1 / trellis=0 / 8x8dct=0 / cqm=0 / deadzone=21,11 / fast_pskip=1 / chroma_qp_offset=-2 / threads=1 / sliced_threads=0 / nr=0 / decimate=1 / interlaced=0 / constrained_intra=0 / bframes=2 / b_pyramid=2 / b_adapt=1 / b_bias=0 / direct=1 / weightb=0 / open_gop=0 / weightp=2 / keyint=250 / keyint_min=25 / scenecut=40 / intra_refresh=0 / rc_lookahead=40 / rc=crf / mbtree=1 / crf=20.0 / qcomp=0.60 / qpmin=3 / qpmax=51 / qpstep=4 / ip_ratio=1.40 / aq=1:1.00
Language : English
Color primaries : BT.601-6 525, BT.1358 525, BT.1700 NTSC, SMPTE 170M
Transfer characteristics : BT.709-5, BT.1361
Matrix coefficients : BT.601-6 525, BT.1358 525, BT.1700 NTSC, SMPTE 170M
Audio #2
ID : 2
Format : AC-3
Format/Info : Audio Coding 3
Mode extension : CM (complete main)
Muxing mode : Header stripping
Codec ID : A_AC3
Duration : 19mn 20s
Bit rate mode : Constant
Bit rate : 224 Kbps
Channel(s) : 2 channels
Channel positions : Front: L R
Sampling rate : 48.0 KHz
Bit depth : 16 bits
Compression mode : Lossy
Stream size : 31.0 MiB (8%)
Text #3
ID : 3
Format : UTF-8
Codec ID : S_TEXT/UTF8
Codec ID/Info : UTF-8 Plain Text
Language : English
Text #4
ID : 4
Format : UTF-8
Codec ID : S_TEXT/UTF8
Codec ID/Info : UTF-8 Plain Text
Language : Russian

Скриншот c названием фильма

Скриншоты






Пример субтитров

1
00:00:03,062 --> 00:00:06,391
"Женщина о 100 головах, или Потерявшая голову", опубликованная в 1929 г.
- первая большая коллекция коллажей
2
00:00:06,451 --> 00:00:09,523
Макса Эрнста, про которые можно сказать,
что они были в Золотом Веке сюрреализма.
3
00:00:09,718 --> 00:00:12,750
Его публикации того времени
подобны основным работам Бретона, Арагона, Пере
4
00:00:12,912 --> 00:00:15,933
и особенно Элюара, чей дух неотделим
от того, что оживляет
5
00:00:16,112 --> 00:00:19,118
образы Макса Эрнста, использующего
сюрреалистическую поэзию в сноподобной манере.
6
00:00:19,248 --> 00:00:22,248
Контраст между элементами, отдельными,
но объединенные каким-то навязчивым очарованием.
[teatrix.ru].t4152.torrent 
Торрент: Зарегистрирован [ 2015-10-07 12:13 ] · 17A51F17E5C875BD3DD9567C3868D1ABCD6E3B51

Скачать .torrent

Скачать

16 KB

Статус: проверено
Скачан: 0 раз
Размер: 395 MB
terms.php



Быстрый ответ

Имя:

      
Для отправки сообщений необходимо включить JavaScript
Показать сообщения:    

Текущее время: 05-Дек 01:26

Часовой пояс: UTC + 3


Вы можете начинать темы
Вы можете отвечать на сообщения
Вы не можете редактировать свои сообщения
Вы не можете удалять свои сообщения
Вы не можете голосовать в опросах
Вы не можете прикреплять файлы к сообщениям
Вы можете скачивать файлы