Начало конца / Beginning to end (Хлое Гибсон / Chloe Gibson) [1966, Ирландия, Драма, VHSRip] savasablin Sub Rus


Статистика раздачи [Обновить пиров]
Размер:  112 MB   |    Зарегистрирован:  1 год 1 месяц   |    Скачан:  0 раз

Полного источника не было: Никогда

 
   
 
 
 

[Цитировать]

Начало конца / Beginning to end
Страна: Ирландия
Жанр: Драма
Год выпуска: 1966
Продолжительность: 00:48:23
Перевод: Субтитры Доп. инфо о переводе savasablin
Cубтитры: русские
Режиссер: Хлое Гибсон / Chloe Gibson
В ролях: Джек МакГоуран
Описание: Снятый в 1966 и восстановленный в 2006 году фильм-моноспектакль, в котором друг и любимый актёр ирландского писателя и драматурга Сэмюэля Беккета, воплощает образы героев автора, собранных из его различных работ ("Моллой", "Мэлон умирает", "Эндшпиль", "Первая любовь" и др.).
Качество видео: VHSRip
Формат видео: MP4
Видео: MPEG-4, 320х240, 4:3, 25.000 fps, 224 Kbps
Аудио: AAC, 44.1 KHz, 96.0 Kbps, 2 channels
Формат субтитров: softsub (SRT)

MediaInfo

General
Complete name : /users/savasablin/Desktop/beginning to end/Beginning To End - Samuel Beckett.mp4
Format : MPEG-4
Format profile : Base Media / Version 2
Codec ID : mp42
File size : 112 MiB
Duration : 48mn 22s
Overall bit rate : 325 Kbps
Encoded date : UTC 2011-02-14 03:11:21
Tagged date : UTC 2011-02-14 03:11:21
gsst : 0
gstd : 2902720
gssd : B4A7DDAA4MH1340195263595313
gshh : o-o.preferred.fra07t14.v4.cache6.c.youtube.com
Video
ID : 1
Format : AVC
Format/Info : Advanced Video Codec
Format profile : Baseline@L1.3
Format settings, CABAC : No
Format settings, ReFrames : 1 frame
Codec ID : avc1
Codec ID/Info : Advanced Video Coding
Duration : 48mn 22s
Bit rate : 224 Kbps
Maximum bit rate : 920 Kbps
Width : 320 pixels
Height : 240 pixels
Display aspect ratio : 4:3
Frame rate mode : Constant
Frame rate : 25.000 fps
Color space : YUV
Chroma subsampling : 4:2:0
Bit depth : 8 bits
Scan type : Progressive
Bits/(Pixel*Frame) : 0.117
Stream size : 77.5 MiB (69%)
Tagged date : UTC 2011-02-14 03:12:19
Audio
ID : 2
Format : AAC
Format/Info : Advanced Audio Codec
Format profile : LC
Codec ID : 40
Duration : 48mn 22s
Bit rate mode : Variable
Bit rate : 96.0 Kbps
Maximum bit rate : 116 Kbps
Channel(s) : 2 channels
Channel positions : Front: L R
Sampling rate : 44.1 KHz
Compression mode : Lossy
Stream size : 33.2 MiB (30%)
Title : (C) 2007 Google Inc. v08.13.2007.
Encoded date : UTC 2011-02-14 03:11:47
Tagged date : UTC 2011-02-14 03:12:19

Скриншот c названием фильма

Скриншоты



[teatrix.ru].t4156.torrent 
Торрент: Зарегистрирован [ 2015-10-07 12:13 ] · C9BAE3A4018471F1EBA0EACE4FEE46B93FFD10CF

Скачать .torrent

Скачать

18 KB

Статус: проверено
Скачан: 0 раз
Размер: 112 MB
terms.php



Быстрый ответ

Имя:

      
Для отправки сообщений необходимо включить JavaScript
Показать сообщения:    

Текущее время: 03-Дек 05:25

Часовой пояс: UTC + 3


Вы можете начинать темы
Вы можете отвечать на сообщения
Вы не можете редактировать свои сообщения
Вы не можете удалять свои сообщения
Вы не можете голосовать в опросах
Вы не можете прикреплять файлы к сообщениям
Вы можете скачивать файлы