Заместитель / Il Supplente (Андреа Жублин / Andrea Jublin) [2007, Италия, Комедия, короткий метр, SATRip] MVO


Статистика раздачи [Обновить пиров]
Размер:  250 MB   |    Зарегистрирован:  1 год 1 месяц   |    Скачан:  0 раз

Полного источника не было: Никогда

 
   
 
 
 

[Цитировать]

Заместитель / Il Supplente Страна: Италия
Жанр: Комедия, короткий метр
Год выпуска: 2007
Продолжительность: 00:14:28
Перевод: Профессиональный (многоголосый закадровый)
Cубтитры: нет
Режиссер: Андреа Жублин / Andrea Jublin
В ролях: Андреа Жублин, Валентино Кампителли, Арианна Даль Буоно, Лоренцо Де Чикко, Николя Де Фео, Паскуале Гарофало, Бруно Панноццо, Мауро Стениччо, Ринальдо Тальяферри.
Описание: Неожиданно для всех в классе появляется новый учитель. Его необычная манера общения приводит учеников в восторг, однако впоследствии выясняется, что реальность совсем не такова, какой казалась на первый взгляд.

Релиз киноклуба
Фильм раздаётся с любезного разрешения tengu
Качество видео: SATRip
Формат видео: AVI
Видео: 720x416 (1.73:1), 25 fps, XviD build 50 ~2278 kbps avg, 0.30 bit/pixel
Аудио: 48 kHz, MPEG Layer 3, 2 ch, ~128.00 kbps avg

MediaInfo

General
Complete name : D:\Public\Il Supplente (2006).avi
Format : AVI
Format/Info : Audio Video Interleave
File size : 250 MiB
Duration : 14mn 27s
Overall bit rate : 2 417 Kbps
Writing application : VirtualDubMod 1.5.10.2 (build 2540/release)
Writing library : VirtualDubMod build 2540/release
Video
ID : 0
Format : MPEG-4 Visual
Format profile : Advanced Simple@L5
Format settings, BVOP : 1
Format settings, QPel : No
Format settings, GMC : No warppoints
Format settings, Matrix : Default (H.263)
Codec ID : XVID
Codec ID/Hint : XviD
Duration : 14mn 27s
Bit rate : 2 279 Kbps
Width : 720 pixels
Height : 416 pixels
Display aspect ratio : 16:9
Frame rate : 25.000 fps
Color space : YUV
Chroma subsampling : 4:2:0
Bit depth : 8 bits
Scan type : Progressive
Compression mode : Lossy
Bits/(Pixel*Frame) : 0.304
Stream size : 236 MiB (94%)
Writing library : XviD 1.2.1 (UTC 2008-12-04)
Audio
ID : 1
Format : MPEG Audio
Format version : Version 1
Format profile : Layer 3
Codec ID : 55
Codec ID/Hint : MP3
Duration : 14mn 27s
Bit rate mode : Constant
Bit rate : 128 Kbps
Channel(s) : 2 channels
Sampling rate : 48.0 KHz
Compression mode : Lossy
Stream size : 13.2 MiB (5%)
Alignment : Aligned on interleaves
Interleave, duration : 40 ms (1.00 video frame)
Interleave, preload duration : 504 ms
Writing library : LAME3.98r
Encoding settings : -m s -V 4 -q 2 -lowpass 17 -b 128

Скриншот c названием фильма

Скриншоты

[teatrix.ru].t4160.torrent 
Торрент: Зарегистрирован [ 2015-10-07 12:13 ] · 794FA1622CA8045ED32D46E3F4F7FF7B7B1A4196

Скачать .torrent

Скачать

20 KB

Статус: проверено
Скачан: 0 раз
Размер: 250 MB
terms.php



Быстрый ответ

Имя:

      
Для отправки сообщений необходимо включить JavaScript
Показать сообщения:    

Текущее время: 04-Дек 02:55

Часовой пояс: UTC + 3


Вы можете начинать темы
Вы можете отвечать на сообщения
Вы не можете редактировать свои сообщения
Вы не можете удалять свои сообщения
Вы не можете голосовать в опросах
Вы не можете прикреплять файлы к сообщениям
Вы можете скачивать файлы