Двойник / Doppelganger (Олег Лямзин / Oleg Lyamzin) [2012, Россия, Притча, HDRip] Original Rus


Статистика раздачи [Обновить пиров]
Размер:  2.14 GB   |    Зарегистрирован:  1 год 1 месяц   |    Скачан:  0 раз

Полного источника не было: Никогда

 
   
 
 
 

[Цитировать]

Двойник / Doppelganger
Страна: Россия
Жанр: Притча
Год выпуска: 2012
Продолжительность: 00:49:23
Перевод: Не требуется
Cубтитры: нет
Оригинальная аудиодорожка: русский
Режиссер: Олег Лямзин / Oleg Lyamzin
В ролях: Дмитрий Чижик, Абу-Али Сайдалиев, Елена Логунова...
Описание: В полной нелепостей и опасностей жизни побеждает тот, кто пытается понять механизм насилия, обмана, манипуляции общественным мнением, заглянуть за кулисы событий, лишить их ореола таинственности и непредсказуемости, кто не боится противопоставить силам зла мужество защитника исконных человеческих ценностей такова основная идея произведений одного из самых язвительных обличителей буржуазного общества, Фридриха Дюрренматта.
Качество видео: HDRip [исходник не известен]
Формат видео: MP4
Видео: H.264, 1280х720, 16:9, 25,000 кадров/сек, 5986 Кбит/сек
Аудио: AAC, 48,0 КГц, 192 Кбит/сек, Front: L R
Сэмпл: http://multi-up.com/728119
Поддержите раздачу - оставьте отзыв!!!

MediaInfo

Общее
Полное имя : D:\ГОТОВОЕ\ДВОЙНИК\Dvojnik_fin_1280x720mp4.mp4
Формат : MPEG-4
Профиль формата : Base Media / Version 2
Идентификатор кодека : mp42
Размер файла : 2,14 Гбайт
Продолжительность : 49 м.
Режим общего битрейта : Переменный
Общий поток : 6189 Кбит/сек
Дата кодирования : UTC 2012-07-03 17:46:10
Дата пометки : UTC 2012-07-03 17:46:10
©TIM : 00:00:00:00
©TSC : 25
©TSZ : 1
Видео
Идентификатор : 1
Формат : AVC
Формат/Информация : Advanced Video Codec
Профиль формата : Main@L3.2
Параметр CABAC формата : Да
Параметр ReFrames формата : 3 кадра
Идентификатор кодека : avc1
Идентификатор кодека/Информация : Advanced Video Coding
Продолжительность : 49 м.
Битрейт : 5986 Кбит/сек
Ширина : 1280 пикселей
Высота : 720 пикселей
Соотношение сторон : 16:9
Режим частоты кадров : Постоянный
Частота кадров : 25,000 кадров/сек
Стандарт вещания : PAL
Цветовое пространство : YUV
Субдискретизация насыщенности : 4:2:0
Битовая глубина : 8 бит
Тип развёртки : Прогрессивная
Бит/(Пиксели*Кадры) : 0.260
Размер потока : 2,07 Гбайт (97%)
Язык : English
Дата кодирования : UTC 2012-07-03 17:46:10
Дата пометки : UTC 2012-07-03 17:46:10
Аудио
Идентификатор : 2
Формат : AAC
Формат/Информация : Advanced Audio Codec
Профиль формата : LC
Идентификатор кодека : 40
Продолжительность : 49 м.
Продолжительность оригинала : 49 м.
Вид битрейта : Переменный
Битрейт : 192 Кбит/сек
Максимальный битрейт : 304 Кбит/сек
Каналы : 2 канала
Расположение каналов : Front: L R
Частота : 48,0 КГц
Метод сжатия : С потерями
Размер потока : 66,9 Мбайт (3%)
Размер потока оригинала : 66,9 Мбайт (3%)
Язык : English
Дата кодирования : UTC 2012-07-03 17:46:10
Дата пометки : UTC 2012-07-03 17:46:10

Скриншот c названием фильма

Скриншоты

Страница фильма на Кинопоиске - http://www.kinopoisk.ru/film/690297/
[teatrix.ru].t4161.torrent 
Торрент: Зарегистрирован [ 2015-10-07 12:13 ] · 6511EEBEE723E99E84A7329A9FD4FBB6FAA1AD85

Скачать .torrent

Скачать

11 KB

Статус: проверено
Скачан: 0 раз
Размер: 2.14 GB
terms.php



Быстрый ответ

Имя:

      
Для отправки сообщений необходимо включить JavaScript
Показать сообщения:    

Текущее время: 03-Дек 22:46

Часовой пояс: UTC + 3


Вы можете начинать темы
Вы можете отвечать на сообщения
Вы не можете редактировать свои сообщения
Вы не можете удалять свои сообщения
Вы не можете голосовать в опросах
Вы не можете прикреплять файлы к сообщениям
Вы можете скачивать файлы