Месть елок / Еловая месть / Treevenge (Джейсон Айзенер / Jason Eisener) [2008, Канада, Короткометражный, черный юмор, DVDRip] DVO НТВ+ Sub Eng


Статистика раздачи [Обновить пиров]
Размер:  205 MB   |    Зарегистрирован:  1 год 1 месяц   |    Скачан:  0 раз

Полного источника не было: Никогда

 
   
 
 
 

[Цитировать]

Месть елок / Еловая месть / Treevenge Страна: Канада
Жанр: Короткометражный, черный юмор
Год выпуска: 2008
Продолжительность: 00:16:01
Перевод: Профессиональный (двухголосый закадровый) НТВ+
Cубтитры: английские (на еловую речь)
Режиссер: Джейсон Айзенер / Jason Eisener
В ролях: Майк Клевен, Сара Дансворт, Лекс Джигерофф, Глен Мэтьюс, Кристи Слейни, Джонатан Торренс.
Описание: Ель - неотъемлемый атрибут новогодних праздников, но задумывался ли кто-нибудь, что чувствует дерево, когда его пилят, волокут в по земле в грузовики, тащат в чужие дома и наряжают всякой чепухой? Режиссер фильма, видимо, об этом задумался и предложил нам свое видение данной ситуации.

Качество видео: DVDRip
Формат видео: AVI
Видео: 720x432 (1.67:1), 23.999 fps, XviD build 46 ~1587 kbps avg, 0.21 bit/pixel
Аудио: 48 kHz, AC3 Dolby Digital, 2/0 (L,R) ch, ~192 kbps
Формат субтитров: hardsub (неотключаемые)

Благодарности[i][color=#993399][b]За запись звука спасибо[/b][/color][/i] [url=http://rutracker.org/forum/profile.php?mode=viewprofile&u=1721925]ItarTass[/url][color=#993399][i][b], за синхронизацию

General
Complete name : G:\Месть елок.avi
Format : AVI
Format/Info : Audio Video Interleave
File size : 205 MiB
Duration : 16mn 1s
Overall bit rate : 1 789 Kbps
Writing application : VirtualDubMod 1.5.10.2 (build 2540/release)
Writing library : VirtualDubMod build 2540/release
Video
ID : 0
Format : xvid
Codec ID : xvid
Duration : 16mn 1s
Bit rate : 1 587 Kbps
Width : 720 pixels
Height : 432 pixels
Display aspect ratio : 1.667
Frame rate : 24.000 fps
Bits/(Pixel*Frame) : 0.213
Stream size : 182 MiB (89%)
Audio
ID : 1
Format : AC-3
Format/Info : Audio Coding 3
Mode extension : CM (complete main)
Format settings, Endianness : Big
Codec ID : 2000
Duration : 16mn 1s
Bit rate mode : Constant
Bit rate : 192 Kbps
Channel(s) : 2 channels
Channel positions : Front: L R
Sampling rate : 48.0 KHz
Bit depth : 16 bits
Compression mode : Lossy
Stream size : 22.0 MiB (11%)
Alignment : Split accross interleaves
Interleave, duration : 42 ms (1.00 video frame)
Interleave, preload duration : 500 ms

Скриншоты

[teatrix.ru].t4164.torrent 
Торрент: Зарегистрирован [ 2015-10-07 12:13 ] · 577F51654CC4391156DE8E3D8EFDB75044AF982B

Скачать .torrent

Скачать

17 KB

Статус: проверено
Скачан: 0 раз
Размер: 205 MB
terms.php



Быстрый ответ

Имя:

      
Для отправки сообщений необходимо включить JavaScript
Показать сообщения:    

Текущее время: 05-Дек 13:34

Часовой пояс: UTC + 3


Вы можете начинать темы
Вы можете отвечать на сообщения
Вы не можете редактировать свои сообщения
Вы не можете удалять свои сообщения
Вы не можете голосовать в опросах
Вы не можете прикреплять файлы к сообщениям
Вы можете скачивать файлы