Садовник, выращивающий орхидеи / Orchidegartneren / The Orchid Gardener (Ларс фон Триер / Lars von Trier) [1977, Дания, Экспериментальный, Короткометражный, VHSRip] VO Хамстер


Статистика раздачи [Обновить пиров]
Размер:  380 MB   |    Зарегистрирован:  1 год 1 месяц   |    Скачан:  0 раз

Полного источника не было: Никогда

 
   
 
 
 

[Цитировать]

Садовник, выращивающий орхидеи / Orchidegartneren / The Orchid Gardener
Страна: Дания
Жанр: Экспериментальный, Короткометражный
Год выпуска: 1977
Продолжительность: 00:35:16
Перевод: Одноголосый закадровый (Хамстер)
Cубтитры: нет
Режиссер: Ларс фон Триер / Lars von Trier
В ролях: Ларс фон Триер, Бриджитт Пелиссье, Ивонн Леви, Карл Хенрик Триер, Беате Копп, Джеспер Хоффмейер и др.
Описание: Этот фильм Ларс фон Триер приложил к заявлению при поступлении в киношколу. Многие из эстетических и тематических фетишей режиссёра прослеживаются уже в этой работе. Фильм, как сообщает подзаголовок его названия, является частью истории художника Виктора Марзе, у которого расстройство психики.
Доп. информация:
Релиз:
Перевод: die_mondnacht
Сэмпл: http://multi-up.com/709336
Исходное видео: http://teatrix.ru/viewtopic.php?t=4168
Качество видео: VHSRip
Формат видео: AVI
Видео: 672x480 (1.40:1), 25 fps, XviD build 64 ~1271 kbps avg, 0.16 bit/pixel
Аудио: 44.100 kHz, MPEG Layer 3, 2 ch, ~224.00 kbps avg

MediaInfo

General
Complete name : G:\Сериалы\фильмы\Orchidegartneren.1977.VHSrip.Hamster.avi
Format : AVI
Format/Info : Audio Video Interleave
File size : 380 MiB
Duration : 35mn 16s
Overall bit rate : 1 506 Kbps
Writing library : VirtualDub build 32706/release
Video
ID : 0
Format : MPEG-4 Visual
Format profile : Advanced Simple@L5
Format settings, BVOP : Yes
Format settings, QPel : No
Format settings, GMC : No warppoints
Format settings, Matrix : Default (MPEG)
Codec ID : XVID
Codec ID/Hint : XviD
Duration : 35mn 16s
Bit rate : 1 272 Kbps
Width : 672 pixels
Height : 480 pixels
Display aspect ratio : 1.400
Frame rate : 25.000 fps
Resolution : 8 bits
Colorimetry : 4:2:0
Scan type : Progressive
Bits/(Pixel*Frame) : 0.158
Stream size : 321 MiB (84%)
Writing library : XviD 64
Audio
ID : 1
Format : MPEG Audio
Format version : Version 1
Format profile : Layer 3
Codec ID : 55
Codec ID/Hint : MP3
Duration : 35mn 16s
Bit rate mode : Constant
Bit rate : 224 Kbps
Channel(s) : 2 channels
Sampling rate : 44.1 KHz
Video delay : 26ms
Stream size : 56.5 MiB (15%)
Alignment : Split accross interleaves
Interleave, duration : 40 ms (1.00 video frame)
Interleave, preload duration : 500 ms

Скриншоты

[teatrix.ru].t4168.torrent 
Торрент: Зарегистрирован [ 2015-10-07 12:13 ] · 5209A0E7C1BF4EA2B187DB2C2F3340BCE39EF758

Скачать .torrent

Скачать

15 KB

Статус: проверено
Скачан: 0 раз
Размер: 380 MB
terms.php



Быстрый ответ

Имя:

      
Для отправки сообщений необходимо включить JavaScript
Показать сообщения:    

Текущее время: 02-Дек 23:11

Часовой пояс: UTC + 3


Вы можете начинать темы
Вы можете отвечать на сообщения
Вы не можете редактировать свои сообщения
Вы не можете удалять свои сообщения
Вы не можете голосовать в опросах
Вы не можете прикреплять файлы к сообщениям
Вы можете скачивать файлы