Наука дьявола / Дьявольское образование / Diabelska edukacja / Devilish Education (Janusz Majewski / Януш Маевский) [1995, эротическая новелла, короткометражный, HDTV 1080i] DVO + Pol + Sub (Rus)


Статистика раздачи [Обновить пиров]
Размер:  1.47 GB   |    Зарегистрирован:  1 год 1 месяц   |    Скачан:  0 раз

Полного источника не было: Никогда

 
   
 
 
 

[Цитировать]

Наука дьявола / Дьявольское образование / Diabelska edukacja / Devilish Education Год выпуска: 1995
Страна: Германия, Польша
Жанр: эротическая новелла, короткометражный
Продолжительность: 00:27:47
Перевод: студийный (двухголосый закадровый) | студия Формат-А
Русские субтитры: есть | pandoctor-Режиссер: Janusz Majewski / Януш Маевский
В ролях: Рената Данцевич, Марек Кондрат, Анна Дымна, Станислав Брудны, Адам Ференцы, Joanna Bialek, Павел Липински
Описание: Простая деревенская девушка стала любовницей очаровательного незнакомца, обещавшего научить ее искусству вести себя в высшем обществе. Обеспокоенная переменами в дочери, мать отправляет ее сначала к священнику, а потом и к врачу, где выясняется, что в этой истории не все так просто, как кажется. Новелла снята для международного телевизионного цикла «Эротические истории» (Erotic Tales).-Качество: HDTV 1080i (Interlaced video)
Формат: MKV
Видеокодек: AVC
Аудиокодек: AC3
Видео: 1920x1080i; 25 fps; 7037 Kbps
Аудио #1: Русский; AC3; 2 Ch; 48.0 KHz; 192 Kbps | DVO (студия Формат-А)
Аудио #2: Польский; AC3; 2 Ch; 48.0 KHz; 192 Kbps | Оригинал
Субтитры #1: Русские; VobSub
Субтитры #2: Русские; SRT UTF-8
Дополнительная информация: Рип скачан с платного польского сайта, русская аудиодорожка извлечена с раздачи - http://rutracker.org/forum/viewtopic.php?t=747555, спасибо Kawada_Shougo. Русские субтитры извлечены из hardsub в рипе с раздачи - http://rutracker.org/forum/viewtopic.php?t=1015360 .-Скачать сэмпл - http://multi-up.com/708103
МедиаИнфо">

Скриншоты МедиаИнфо


General
Unique ID : 186679353555991842750280767611510227583 (0x8C7122BD50E88EBEA929B4DFCCB8827F)
Complete name : E:\MyRazd\Diabelska.edukacja.1995.HDTV.1080i.mkv
Format : Matroska
Format version : Version 2
File size : 1.47 GiB
Duration : 27mn 47s
Overall bit rate : 7 572 Kbps
Movie name : Diabelska.edukacja.1995.HDTV.1080i.mkv
Encoded date : UTC 2012-05-24 08:53:01
Writing application : mkvmerge v5.4.0 ('Piper') built on Mar 10 2012 13:34:39
Writing library : libebml v1.2.3 + libmatroska v1.3.0
Video
ID : 1
Format : AVC
Format/Info : Advanced Video Codec
Format profile : Main@L4.0
Format settings, CABAC : Yes
Format settings, ReFrames : 4 frames
Codec ID : V_MPEG4/ISO/AVC
Duration : 27mn 47s
Bit rate : 7 037 Kbps
Width : 1 920 pixels
Height : 1 080 pixels
Display aspect ratio : 16:9
Frame rate : 50.000 fps
Original frame rate : 25.000 fps
Standard : Component
Color space : YUV
Chroma subsampling : 4:2:0
Bit depth : 8 bits
Scan type : Interlaced
Scan order : Top Field First
Bits/(Pixel*Frame) : 0.068
Stream size : 1.37 GiB (93%)
Title : Diabelska.edukacja.1995
Language : Polish
Default : Yes
Forced : No
Color primaries : BT.709-5, BT.1361, IEC 61966-2-4, SMPTE RP177
Transfer characteristics : BT.709-5, BT.1361
Matrix coefficients : BT.709-5, BT.1361, IEC 61966-2-4 709, SMPTE RP177
Audio #1
ID : 2
Format : AC-3
Format/Info : Audio Coding 3
Mode extension : CM (complete main)
Codec ID : A_AC3
Duration : 27mn 47s
Bit rate mode : Constant
Bit rate : 192 Kbps
Channel(s) : 2 channels
Channel positions : Front: L R
Sampling rate : 48.0 KHz
Bit depth : 16 bits
Compression mode : Lossy
Stream size : 38.2 MiB (3%)
Title : DVO (студия Формат-А)
Language : Russian
Default : Yes
Forced : No
Audio #2
ID : 3
Format : AC-3
Format/Info : Audio Coding 3
Mode extension : CM (complete main)
Codec ID : A_AC3
Duration : 27mn 47s
Bit rate mode : Constant
Bit rate : 192 Kbps
Channel(s) : 2 channels
Channel positions : Front: L R
Sampling rate : 48.0 KHz
Bit depth : 16 bits
Compression mode : Lossy
Stream size : 38.2 MiB (3%)
Title : Original
Language : Polish
Default : No
Forced : No
Text #1
ID : 4
Format : VobSub
Muxing mode : zlib
Codec ID : S_VOBSUB
Codec ID/Info : The same subtitle format used on DVDs
Language : Russian
Default : No
Forced : No
Text #2
ID : 5
Format : UTF-8
Codec ID : S_TEXT/UTF8
Codec ID/Info : UTF-8 Plain Text
Language : Russian
Default : No
Forced : No
Все раздачи фильма Наука дьявола / Дьявольское образование / Diabelska edukacjaВнимание! Если у Вас появились проблемы при просмотре чересстрочного видео (Interlaced video),
рекомендуем использовать простой и удобный программный плеер Splash Pro 1.3.2.0 (12 МБ)
.
[teatrix.ru].t4169.torrent 
Торрент: Зарегистрирован [ 2015-10-07 12:13 ] · CB8130AAC474C4A78A8E75560B81B1B6DC36FE6F

Скачать .torrent

Скачать

15 KB

Статус: проверено
Скачан: 0 раз
Размер: 1.47 GB
terms.php



Быстрый ответ

Имя:

      
Для отправки сообщений необходимо включить JavaScript
Показать сообщения:    

Текущее время: 07-Дек 00:49

Часовой пояс: UTC + 3


Вы можете начинать темы
Вы можете отвечать на сообщения
Вы не можете редактировать свои сообщения
Вы не можете удалять свои сообщения
Вы не можете голосовать в опросах
Вы не можете прикреплять файлы к сообщениям
Вы можете скачивать файлы