Дедлайн / Deadline (Анастасия Гавинская / Anastasiia Gavinska) [2012, Украина, Драма, HDRip] Sub Rus + Original Ukr


Статистика раздачи [Обновить пиров]
Размер:  98 MB   |    Зарегистрирован:  1 год 2 месяца   |    Скачан:  0 раз

Полного источника не было: Никогда

 
   
 
 
 

[Цитировать]

-Дедлайн / Deadline-Страна: Украина
Жанр: Драма
Год выпуска: 2012
Продолжительность: 00:11:14-Перевод: Субтитры
Cубтитры: русские
Оригинальная аудиодорожка: украинский-Режиссер: Анастасия Гавинская / Anastasiia Gavinska
В ролях: Евгений Авдеенко, Дмитрий Суржиков, Ольга Олексий, Андрей Дебрин, Тарас Ткаченко, Рубен Петросов-Описание: Ежедневно молодой телеведущий идет на уступки своему редактору, уверенному, что зрителя интересует лишь кровь и смерть. Однажды насилие, которое уже переполнило эфир на всех каналах, разрушительно вторгается в его личную жизнь. Тогда он действует именно так, как почти сорок лет тому назад поступила телеведущая в американском штате Флорида.-кинопоиск- Качество видео: HDRip (исходник) - Сэмпл видео
Формат видео: AVI
Видео: 656x368 (1.78:1), 25 fps, XviD build 50 ~1087 kbps avg, 0.18 bit/pixel
Аудио: 48 kHz, MPEG Layer 3, 2 ch, ~128.00 kbps avg
Доп. информация о субтитрах: Кодек: Text subtitle. Синхронизация субтитров alex-kin

MI

General
Complete name                    : X:\  -= Фильмы =-\+ Рипнуто\Дедлайн\Deadline.avi
Format                           : AVI
Format/Info                      : Audio Video Interleave
File size                        : 98.4 MiB
Duration                         : 11mn 13s
Overall bit rate                 : 1 226 Kbps
Writing application              : VirtualDubMod 1.5.10.2 (build 2540/release)
Writing library                  : VirtualDubMod build 2540/release
Video
ID                               : 0
Format                           : MPEG-4 Visual
Format profile                   : Advanced Simple@L5
Format settings, BVOP            : Yes
Format settings, QPel            : No
Format settings, GMC             : No warppoints
Format settings, Matrix          : Default (MPEG)
Codec ID                         : XVID
Codec ID/Hint                    : XviD
Duration                         : 11mn 13s
Bit rate                         : 1 088 Kbps
Width                            : 656 pixels
Height                           : 368 pixels
Display aspect ratio             : 16:9
Frame rate                       : 25.000 fps
Color space                      : YUV
Chroma subsampling               : 4:2:0
Bit depth                        : 8 bits
Scan type                        : Progressive
Bits/(Pixel*Frame)               : 0.180
Stream size                      : 87.3 MiB (89%)
Writing library                  : XviD 1.2.1 (UTC 2008-12-04)
Audio
ID                               : 1
Format                           : MPEG Audio
Format version                   : Version 1
Format profile                   : Layer 3
Codec ID                         : 55
Codec ID/Hint                    : MP3
Duration                         : 11mn 13s
Bit rate mode                    : Constant
Bit rate                         : 128 Kbps
Channel(s)                       : 2 channels
Sampling rate                    : 48.0 KHz
Stream size                      : 10.3 MiB (10%)
Alignment                        : Aligned on interleaves
Interleave, duration             : 40 ms (1.00 video frame)
Interleave, preload duration     : 504 ms
Writing library                  : LAME3.98r
Encoding settings                : -m s -V 4 -q 2 -lowpass 17 -b 128

Скриншот c названием фильма

Скриншоты


Субтитры

1
00:00:47,340 --> 00:00:48,812
В эфире последние новости:
2
00:00:48,983 --> 00:00:52,993
Молодые девушки изрешетили ножом
пожилую соседку и подожгли её квартиру.
3
00:00:53,341 --> 00:00:55,884
Убийцу выбирали,
вытягивая спичку.
4
00:00:55,889 --> 00:00:59,119
Пьяный мужчина с яростью
всадил в женщину нож 48 раз...
5
00:00:59,282 --> 00:01:02,561
...Собака разорвала на куски
выброшенного на мороз младенца.
6
00:01:02,653 --> 00:01:05,158
Местная жительница рядом с
собачьей будкой нашла
7
00:01:05,321 --> 00:01:07,308
объеденные фрагменты
тела младенца,
8
00:01:07,377 --> 00:01:10,267
из которых де-факто
осталась только голова.
9
00:01:10,350 --> 00:01:13,122
Был ли младенец живым,
когда его выбросили на мороз...
10
00:01:43,034 --> 00:01:46,676
Женщина завернула маленького сына
в одеяло и полураздетая вышла во двор,
11
00:01:46,786 --> 00:01:47,472
по словам родственников.
12
00:01:47,902 --> 00:01:50,899
Уже через несколько минут очевидцы
видели, как она прыгнула с моста.
13
00:01:51,030 --> 00:01:53,000
Но ребенка с ней не было.
14
00:01:53,324 --> 00:01:55,445
- Нормальная женщина,
на которую можна было положиться,
15
00:01:55,514 --> 00:01:58,054
которая думала о детях...
16
00:01:58,579 --> 00:02:03,054
...о семье. Вместе с мужем,
как говорится, заботились и строились...
17
00:02:04,130 --> 00:02:06,100
Своего четырёх...
18
00:02:51,471 --> 00:02:55,188
С помощью электрической болгарки
расчленила тело своего мужа
19
00:02:55,337 --> 00:02:57,605
и развезла части тела
с целью сокрытия
20
00:02:57,922 --> 00:03:00,187
совершенного преступления.
Развезла части тела
[teatrix.ru].t4177.torrent 
Торрент: Зарегистрирован [ 2015-10-07 15:57 ] · 39A195F1FC4A91B50B5A701F9F96C6B86C17A630

Скачать .torrent

Скачать

16 KB

Статус: проверено
Скачан: 0 раз
Размер: 98 MB
terms.php



Быстрый ответ

Имя:

      
Для отправки сообщений необходимо включить JavaScript
Показать сообщения:    

Текущее время: 08-Дек 07:01

Часовой пояс: UTC + 3


Вы можете начинать темы
Вы можете отвечать на сообщения
Вы не можете редактировать свои сообщения
Вы не можете удалять свои сообщения
Вы не можете голосовать в опросах
Вы не можете прикреплять файлы к сообщениям
Вы можете скачивать файлы