До вечера! / A ce soir (Оливия Бассет / Olivia Basset) [2009, Франция, мелодрама, короткий метр, SATRip] DVO (Еврокино)


Статистика раздачи [Обновить пиров]
Размер:  131 MB   |    Зарегистрирован:  1 год 1 месяц   |    Скачан:  0 раз

Полного источника не было: Никогда

 
   
 
 
 

[Цитировать]

До вечера!
A ce soir- Страна: Франция
Жанр: мелодрама, короткий метр
Год выпуска: 2009
Продолжительность: 00:07:56
Перевод: Профессиональный (двухголосый закадровый) Доп. инфо о переводе (канал "Еврокино")
Cубтитры: нет
Режиссер: Оливия Бассет / Olivia Basset
В ролях: Брюно Подалиде / Bruno Podalydes, Флоранс Мюллер / Florence Muller, Ксавье Берлио / Xavier Berlioz
Описание: Писательница Оливия Бассет решила попробовать свои силы в режиссуре. Снятая под классическую музыку в стиле балетной интерлюдии эта короткометражка неожиданным образом раскрывает кризис взаимоотношений немолодой пары, когда незначительное событие может изменить устоявшийся порядок.
Награда за лучший короткометражный фильм на Международном фестивале молодых режиссеров в Saint Jean de Luz (2010).
Доп. информация: Собственный рип (канал "ЕВРОКИНО", пакет НТВ+).
Сэмпл: http://multi-up.com/699263
Качество видео: SATRip
Формат видео: AVI
Видео: XviD, 704x400 (1.76:1), 25 fps, ATI YVU12 4:2:0 Planar ~2109 kbps avg, 0.30 bit/pixel
Аудио: 48 kHz, MPEG Layer 3, 2 ch, ~192.00 kbps avg

MediaInfo

Полное имя : H:\My Torrents\[apreder]MM_A_ce_soir(2009)SATRip.aviФормат : AVIФормат/Информация : Audio Video InterleaveРазмер файла : 131 МбайтПродолжительность : 7 м. 56 с.Общий поток : 2312 Кбит/секПрограмма кодирования : VirtualDubMod 1.5.10.3 | www.virtualdub-fr.org || (build 2550/release)Библиотека кодирования : VirtualDubMod build 2550/release
ВидеоИдентификатор : 0Формат : MPEG-4 VisualПрофиль формата : Advanced Simple@L5Параметр BVOP формата : 2Параметр QPel формата : НетПараметр GMC формата : Без точки переходаПараметр матрицы формата : Default (H.263)Режим смешивания : Сжатый битовый потокИдентификатор кодека : XVIDИдентификатор кодека/Подсказка : XviDПродолжительность : 7 м. 56 с.Битрейт : 2110 Кбит/секШирина : 704 пикселяВысота : 400 пикселейСоотношение сторон : 0,944Соотношение сторон в оригинале : 16:9Частота кадров : 25,000 кадров/секЦветовое пространство : YUVСубдискретизация насыщенности : 4:2:0Битовая глубина : 8 битТип развёртки : ПрогрессивнаяМетод сжатия : С потерямиБит/(Пиксели*Кадры) : 0.300Размер потока : 120 Мбайт (91%)Библиотека кодирования : XviD 64
АудиоИдентификатор : 1Формат : MPEG AudioВерсия формата : Version 1Профиль формата : Layer 3Режим : Joint stereoРасширение режима : MS StereoИдентификатор кодека : 55Идентификатор кодека/Подсказка : MP3Продолжительность : 7 м. 56 с.Вид битрейта : ПостоянныйБитрейт : 192 Кбит/секКаналы : 2 каналаЧастота : 48,0 КГцМетод сжатия : С потерямиРазмер потока : 10,9 Мбайт (8%)Выравнивание : Соединение по промежуткамПродолжительность промежутка : 40 мс. (1,00 видеокадр)Время предзагрузки промежутка : 504 мс.

Скриншот c названием фильма

Скриншоты

[teatrix.ru].t4179.torrent 
Торрент: Зарегистрирован [ 2015-10-07 15:57 ] · FBACDD291A126BAA787BDE48AE1F1D3EADFBA644

Скачать .torrent

Скачать

11 KB

Статус: проверено
Скачан: 0 раз
Размер: 131 MB
terms.php



Быстрый ответ

Имя:

      
Для отправки сообщений необходимо включить JavaScript
Показать сообщения:    

Текущее время: 04-Дек 19:22

Часовой пояс: UTC + 3


Вы можете начинать темы
Вы можете отвечать на сообщения
Вы не можете редактировать свои сообщения
Вы не можете удалять свои сообщения
Вы не можете голосовать в опросах
Вы не можете прикреплять файлы к сообщениям
Вы можете скачивать файлы