Детка / Baby (УИЗ / W.I.Z.) [2000, Великобритания, драма, гей-тема, короткий метр, DVDRip]


Статистика раздачи [Обновить пиров]
Размер:  214 MB   |    Зарегистрирован:  1 год 2 месяца   |    Скачан:  0 раз

Полного источника не было: Никогда

 
   
 
 
 

[Цитировать]

Детка
Baby- Страна: Великобритания
Жанр: драма, гей-тема, короткий метр
Год выпуска: 2000
Продолжительность: 00:11:41
Перевод: Не требуется
Cубтитры: нет
Оригинальная аудиодорожка: Музыкальное сопровождение
Режиссер: УИЗ / W.I.Z.
В ролях: Бен Уишоу / Ben Whishaw (Little Joe), Антон Сондерс / Anton Saunders (Craig), Клайв Хейворд / Clive Hayward (Novice swimmer)
Описание: Первая главная роль Бена Уишоу. До этого он уже появился в эпизоде «Эскорта» (1999) Мишеля Блана и в паре других фильмов, а до «Парфюмера» и большого успеха еще 5 лет работы на сериалах, в независимом кино и театре. Культовый британский клипмейкер W.I.Z., снявший видеоклипы для Massive Attack, Kasabian, Oasis и Marilyn Manson, а также концертные выступления Suede, Manic Street Preachers и Primal Scream, в игровом кино известен всего двумя короткометражками, которые сам называет документальными фильмами.
Второй игровой фильм режиссера «Детка» (2000) выстроен по канонам видеоклипа, когда все действие происходит под оригинальную музыку Howie B. (музыканта и продюсера, работавшего с Björk и U2), перебиваемую звуками реальной жизни и происходящих событий: льющейся воды, вздохов, смеха, плеска бассейна. Фильм рассказывает историю взросления тинейджера, проходящего период сексуальной самоидентификации.
Награды: Специальный почетный приз Buenos Aires International Festival of Independent Cinema 2001 за лучшую короткометражку; Почетный приз Atlanta Film Festival 2002 за лучшую короткометражку.
Информация: http://www.imdb.com/title/tt0275210/
Доп. информация: Фильм вышел на DVD в составе сборника короткометражек Coming of Age - Vol. 1 (2009). На территории РФ возрастное ограничение 18+.
Сэмпл: http://multi-up.com/697747
Качество видео: DVDRip
Формат видео: AVI
Видео: XviD, 640x272 (2.35:1), 25 fps, ATI YVU12 4:2:0 Planar ~2355 kbps avg, 0.54 bit/pixel
Аудио: 48 kHz, MPEG Layer 3, 2 ch, ~192.00 kbps avg

MediaInfo

Полное имя : H:\My Torrents\[apreder]MM_Baby(2000)DVDRip.aviФормат : AVIФормат/Информация : Audio Video InterleaveРазмер файла : 214 МбайтПродолжительность : 11 м.Общий поток : 2557 Кбит/секПрограмма кодирования : VirtualDubMod 1.5.10.3 | www.virtualdub-fr.org || (build 2550/release)Библиотека кодирования : VirtualDubMod build 2550/release
ВидеоИдентификатор : 0Формат : MPEG-4 VisualПрофиль формата : Advanced Simple@L5Параметр BVOP формата : 2Параметр QPel формата : НетПараметр GMC формата : Без точки переходаПараметр матрицы формата : Default (H.263)Режим смешивания : Сжатый битовый потокИдентификатор кодека : XVIDИдентификатор кодека/Подсказка : XviDПродолжительность : 11 м.Битрейт : 2355 Кбит/секШирина : 640 пикселейВысота : 272 пикселяСоотношение сторон : 16:9Соотношение сторон в оригинале : 2,35:1Частота кадров : 25,000 кадров/секЦветовое пространство : YUVСубдискретизация насыщенности : 4:2:0Битовая глубина : 8 битТип развёртки : ПрогрессивнаяМетод сжатия : С потерямиБит/(Пиксели*Кадры) : 0.541Размер потока : 197 Мбайт (92%)Библиотека кодирования : XviD 64
АудиоИдентификатор : 1Формат : MPEG AudioВерсия формата : Version 1Профиль формата : Layer 3Режим : Joint stereoРасширение режима : MS StereoИдентификатор кодека : 55Идентификатор кодека/Подсказка : MP3Продолжительность : 11 м.Вид битрейта : ПостоянныйБитрейт : 192 Кбит/секКаналы : 2 каналаЧастота : 48,0 КГцМетод сжатия : С потерямиРазмер потока : 16,0 Мбайт (8%)Выравнивание : Разделение по промежуткамПродолжительность промежутка : 40 мс. (1,00 видеокадр)Время предзагрузки промежутка : 500 мс.Библиотека кодирования : LAME3.98

Скриншот c названием фильма

Скриншоты


Скриншоты - резерв


[teatrix.ru].t4180.torrent 
Торрент: Зарегистрирован [ 2015-10-07 15:57 ] · FE42CC7E8EDEE4C87E2EBEC6E162C7EE6422D73E

Скачать .torrent

Скачать

17 KB

Статус: проверено
Скачан: 0 раз
Размер: 214 MB
terms.php



Быстрый ответ

Имя:

      
Для отправки сообщений необходимо включить JavaScript
Показать сообщения:    

Текущее время: 11-Дек 05:19

Часовой пояс: UTC + 3


Вы можете начинать темы
Вы можете отвечать на сообщения
Вы не можете редактировать свои сообщения
Вы не можете удалять свои сообщения
Вы не можете голосовать в опросах
Вы не можете прикреплять файлы к сообщениям
Вы можете скачивать файлы