Что это? / What is that? / Ti einai afto? (Константин Пилавиос / Constantin Pilavios) [2007 г., короткометражка, драма, HDTVRip] DVO + 5 x VO + Original (Greek) + Sub (Rus, Eng)


Статистика раздачи [Обновить пиров]
Размер:  133 MB   |    Зарегистрирован:  1 год 1 месяц   |    Скачан:  0 раз

Полного источника не было: Никогда

 
   
 
 
 

[Цитировать]

--Что это? / Ti einai afto?-- Название: Что это?
Оригинальное название: Ti einai afto?
Слоган: -
Страна: Греция
Производство: MovieTeller Films
Год: 2007
Продолжительность: 00:05:30
Жанр: короткометражка, драма
Перевод: Любительский (двухголосый закадровый) VaG093
+ Одноголосый закадровый sufizmorg
+ Одноголосый закадровый Антон Прокофьев
+ Одноголосый закадровый SilaPravdi
+ Одноголосый закадровый LifeSecrets4you (отдельным файлом)
+ Студийный (одноголосый закадровый) озвучено студией «Hermaier» (отдельным файлом)
+ оригинальная звуковая дорожка. (отдельным файлом)
Оригинальная аудиодорожка: греческий
Субтитры: русские (внешние), английские (вшитые)--Сценарий: Константин Пилавиос, Никос Пилавиос
Продюсер: -
Оператор: Zoe Manta
Композитор: Христос Триандафиллу
Режиссер: Константин Пилавиос / Constantin Pilavios
В ролях:
Nikos Zoiopoulos, Panayotis Bouyouris--Описание:
Отец и сын сидят на скамейке. Неожиданно рядом появляется воробей.
Удивительно трогательная короткометражка про то, как часто мы сталкиваемся с болью которую творим нашему любимому человеку.--Сэмпл: http://multi-up.com/696531
Качество: HDTVRip (источник: исходный видео материал, спасибо: Матяшко)
Формат: AVI
Видео: MPEG-4 1280x720 (1.78:1), 25.00fps, ~2014Kbps avg, 0.10 bit/pixel
Аудио 1: 48 kHz, AC3 Dolby Digital, 2/0 (L,R) ch, ~192 kbps |DVO| VaG093
Аудио 2: 48 kHz, AC3 Dolby Digital, 2/0 (L,R) ch, ~192 kbps |VO| sufizmorg
Аудио 3: 48 kHz, AC3 Dolby Digital, 2/0 (L,R) ch, ~192 kbps |VO| Антон Прокофьев
Аудио 4: 48 kHz, AC3 Dolby Digital, 2/0 (L,R) ch, ~192 kbps |VO| SilaPravdi
Аудио 5: 48 kHz, AC3 Dolby Digital, 2/0 (L,R) ch, ~192 kbps |VO| LifeSecrets4you (отдельным файлом)
Аудио 6: 48 kHz, AC3 Dolby Digital, 2/0 (L,R) ch, ~192 kbps |VO| озвучено студией «Hermaier» (отдельным файлом)
Аудио 7: 48 kHz, AC3 Dolby Digital, 2/0 (L,R) ch, ~192 kbps |Оригинальная аудиодорожка| (отдельным файлом)

MediaInfo

Общее
Полное имя : 2007 Что это.avi
Формат : AVI
Формат/Информация : Audio Video Interleave
Размер файла : 134 Мбайт
Продолжительность : 5 м. 30 с.
Общий поток : 3397 Кбит/сек
Программа кодирования : VirtualDubMod 1.5.4.1 (build 2178/release)
Библиотека кодирования : VirtualDubMod build 2178/release
Видео
Идентификатор : 0
Формат : MPEG-4 Visual
Профиль формата : Simple@L1
Параметр BVOP формата : Нет
Параметр QPel формата : Нет
Параметр GMC формата : Без точки перехода
Параметр матрицы формата : Default (H.263)
Идентификатор кодека : FMP4
Продолжительность : 5 м. 30 с.
Битрейт : 2014 Кбит/сек
Ширина : 1280 пикс.
Высота : 720 пикс.
Соотношение сторон : 16:9
Частота кадров : 25,000 кадр/сек
Цветовое пространство : YUV
Подвыборка цветности : 4:2:0
Битовая глубина : 8 бит
Тип развёртки : Прогрессивная
Метод сжатия : С потерями
Бит/(Пиксели*Кадры) : 0.087
Размер потока : 79,3 Мбайт (59%)
Библиотека кодирования : Lavc51.57.2
Аудио #1
Идентификатор : 1
Формат : AC-3
Формат/Информация : Audio Coding 3
Расширение режима : CM (complete main)
Идентификатор кодека : 2000
Продолжительность : 5 м. 30 с.
Вид битрейта : Постоянный
Битрейт : 192 Кбит/сек
Канал(ы) : 2 канала(ов)
Расположение каналов : Front: L R
Частота : 48,0 КГц
Битовая глубина : 16 бит
Метод сжатия : С потерями
Размер потока : 7,56 Мбайт (6%)
Выравнивание : Разделение по промежуткам
Продолжительность промежутка : 40 мс. (1,00 видеокадр)
Время предзагрузки промежутка : 500 ms
Аудио #2
Идентификатор : 2
Формат : AC-3
Формат/Информация : Audio Coding 3
Расширение режима : CM (complete main)
Идентификатор кодека : 2000
Продолжительность : 5 м. 30 с.
Вид битрейта : Постоянный
Битрейт : 192 Кбит/сек
Канал(ы) : 2 канала(ов)
Расположение каналов : Front: L R
Частота : 48,0 КГц
Битовая глубина : 16 бит
Метод сжатия : С потерями
Размер потока : 7,56 Мбайт (6%)
Выравнивание : Разделение по промежуткам
Продолжительность промежутка : 40 мс. (1,00 видеокадр)
Время предзагрузки промежутка : 500 ms
Аудио #3
Идентификатор : 3
Формат : AC-3
Формат/Информация : Audio Coding 3
Расширение режима : CM (complete main)
Идентификатор кодека : 2000
Продолжительность : 5 м. 30 с.
Вид битрейта : Постоянный
Битрейт : 192 Кбит/сек
Канал(ы) : 2 канала(ов)
Расположение каналов : Front: L R
Частота : 48,0 КГц
Битовая глубина : 16 бит
Метод сжатия : С потерями
Размер потока : 7,56 Мбайт (6%)
Выравнивание : Разделение по промежуткам
Продолжительность промежутка : 40 мс. (1,00 видеокадр)
Время предзагрузки промежутка : 500 ms
Аудио #4
Идентификатор : 4
Формат : AC-3
Формат/Информация : Audio Coding 3
Расширение режима : CM (complete main)
Идентификатор кодека : 2000
Продолжительность : 5 м. 30 с.
Вид битрейта : Постоянный
Битрейт : 192 Кбит/сек
Канал(ы) : 2 канала(ов)
Расположение каналов : Front: L R
Частота : 48,0 КГц
Битовая глубина : 16 бит
Метод сжатия : С потерями
Размер потока : 7,56 Мбайт (6%)
Выравнивание : Разделение по промежуткам
Продолжительность промежутка : 40 мс. (1,00 видеокадр)
Время предзагрузки промежутка : 500 ms

Скриншот c названием фильма

Скриншоты

[teatrix.ru].t4181.torrent 
Торрент: Зарегистрирован [ 2015-10-07 15:57 ] · 5AA762874AB8A2762540967785FA681B20546E46

Скачать .torrent

Скачать

11 KB

Статус: проверено
Скачан: 0 раз
Размер: 133 MB
terms.php



Быстрый ответ

Имя:

      
Для отправки сообщений необходимо включить JavaScript
Показать сообщения:    

Текущее время: 06-Дек 20:58

Часовой пояс: UTC + 3


Вы можете начинать темы
Вы можете отвечать на сообщения
Вы не можете редактировать свои сообщения
Вы не можете удалять свои сообщения
Вы не можете голосовать в опросах
Вы не можете прикреплять файлы к сообщениям
Вы можете скачивать файлы