Переписка / Gratte-papier / Penpusher (Гийом Мартинес / Guillaume Martinez) [2005, Франция, мелодрама, короткий метр, SATRip] VO (Еврокино) + (Sub hard Rus)


Статистика раздачи [Обновить пиров]
Размер:  126 MB   |    Зарегистрирован:  1 год 2 месяца   |    Скачан:  0 раз

Полного источника не было: Никогда

 
   
 
 
 

[Цитировать]

Переписка
Gratte-papier / Penpusher- Страна: Франция
Жанр: мелодрама, короткий метр
Год выпуска: 2005
Продолжительность: 00:07:21
Перевод: Студийный (одноголосый закадровый) Доп. инфо о переводе (канал "Еврокино")
Cубтитры: русские
Режиссер: Гийом Мартинес / Guillaume Martinez
В ролях: Бенжамин Беллекур / Benjamin Bellecour (Young Man), Гаэль Брюне / Gaëlle Brunet (Young Woman)
Описание: Дебютная короткометражка Гийома Мартинеса снята чрезвычайно талантливо, хотя и рассказывает, в общем-то, обыденную историю: как в парижском метро юноша начинает диалог с севшей рядом незнакомой девушкой, подчеркивая слова в читаемой им книге, и девушка отвечает ему, ставя пометки в своей…
Награды: «Серебряный медведь» Berlin International Film Festival 2006 за лучшую короткометражку + номинация на «Золотого медведя»; 2 награды Festival Mouviz (Nantes France) 2006 (Специальный почетный приз жюри; приз Зрительских симпатий); приз Зрительских симпатий Ecu European Independent Film Festival 2006; награда Onda Curta Award - Curtas Vila do Conde International Short Film Festival 2006; награда Panavision Award - Avignon Film Festival 2007 за лучшую европейскую короткометражку; награда Hermès Award of the City Festival du Court Métrage de Fréjus 2007.
Информация: http://www.imdb.com/title/tt0783722/
Доп. информация: Собственный рип (канал "ЕВРОКИНО", пакет НТВ+).
Сэмпл: http://multi-up.com/693317
Качество видео: SATRip
Формат видео: AVI
Видео: XviD, 704x416 (1.69:1), 25 fps, ATI YVU12 4:2:0 Planar ~2190 kbps avg, 0.30 bit/pixel
Аудио: 48 kHz, MPEG Layer 3, 2 ch, ~192.00 kbps avg
Формат субтитров: hardsub (неотключаемые)
Доп. информация о субтитрах: киноканал наложил субтитры на черный фон под кадром

MediaInfo

Полное имя : H:\My Torrents\[apreder]MM_Gratte-papier(2005)SATRip.aviФормат : AVIФормат/Информация : Audio Video InterleaveРазмер файла : 126 МбайтПродолжительность : 7 м. 21 с.Общий поток : 2392 Кбит/секПрограмма кодирования : VirtualDubMod 1.5.10.3 | www.virtualdub-fr.org || (build 2550/release)Библиотека кодирования : VirtualDubMod build 2550/release
ВидеоИдентификатор : 0Формат : MPEG-4 VisualПрофиль формата : Advanced Simple@L5Параметр BVOP формата : 2Параметр QPel формата : НетПараметр GMC формата : Без точки переходаПараметр матрицы формата : Default (H.263)Режим смешивания : Сжатый битовый потокИдентификатор кодека : XVIDИдентификатор кодека/Подсказка : XviDПродолжительность : 7 м. 21 с.Битрейт : 2190 Кбит/секШирина : 704 пикселяВысота : 416 пикселейСоотношение сторон : 0,944Соотношение сторон в оригинале : 1,692Частота кадров : 25,000 кадров/секЦветовое пространство : YUVСубдискретизация насыщенности : 4:2:0Битовая глубина : 8 битТип развёртки : ПрогрессивнаяМетод сжатия : С потерямиБит/(Пиксели*Кадры) : 0.299Размер потока : 115 Мбайт (92%)Библиотека кодирования : XviD 64
АудиоИдентификатор : 1Формат : MPEG AudioВерсия формата : Version 1Профиль формата : Layer 3Режим : Joint stereoРасширение режима : MS StereoИдентификатор кодека : 55Идентификатор кодека/Подсказка : MP3Продолжительность : 7 м. 21 с.Вид битрейта : ПостоянныйБитрейт : 192 Кбит/секКаналы : 2 каналаЧастота : 48,0 КГцМетод сжатия : С потерямиРазмер потока : 10,1 Мбайт (8%)Выравнивание : Соединение по промежуткамПродолжительность промежутка : 40 мс. (1,00 видеокадр)Время предзагрузки промежутка : 504 мс.

Скриншот c названием фильма

Скриншоты

[teatrix.ru].t4184.torrent 
Торрент: Зарегистрирован [ 2015-10-07 15:57 ] · CD3321433D5ADABC9BD676032569C1128D0CB5CF

Скачать .torrent

Скачать

20 KB

Статус: проверено
Скачан: 0 раз
Размер: 126 MB
terms.php



Быстрый ответ

Имя:

      
Для отправки сообщений необходимо включить JavaScript
Показать сообщения:    

Текущее время: 08-Дек 19:10

Часовой пояс: UTC + 3


Вы можете начинать темы
Вы можете отвечать на сообщения
Вы не можете редактировать свои сообщения
Вы не можете удалять свои сообщения
Вы не можете голосовать в опросах
Вы не можете прикреплять файлы к сообщениям
Вы можете скачивать файлы