Дедлайн / Deadline (Анастасия Гавинская / Anastasiia Gavinska) [2012, Украина, драма, HDRip] Sub Rus + Original Ukr


Статистика раздачи [Обновить пиров]
Размер:  416 MB   |    Зарегистрирован:  1 год 2 месяца   |    Скачан:  0 раз

Полного источника не было: Никогда

 
   
 
 
 

[Цитировать]

Дедлайн / Deadline
Страна: Украина
Жанр: драма
Год выпуска: 2012
Продолжительность: 00:11:14
Перевод: Субтитры
Cубтитры: русские
Оригинальная аудиодорожка: украинский
Режиссер: Анастасия Гавинская / Anastasiia Gavinska
В ролях: Евгений Авдеенко, Дмитрий Суржиков, Ольга Олексий, Андрей Дебрин, Тарас Ткаченко, Рубен Петросов
Описание: Ежедневно молодой телеведущий идет на уступки своему редактору, уверенному, что зрителя интересует лишь кровь и смерть. Однажды насилие, которое уже переполнило эфир на всех каналах, разрушительно вторгается в его личную жизнь. Тогда он действует именно так, как почти сорок лет тому назад поступила телеведущая в американском штате Флорида.
Сэмпл видео: http://multi-up.com/677661
Качество видео: HDRip
Формат видео: MP4
Видео: H264 - MPEG-4 AVC (part 10) (avc1). Разрешение: 1920x1080. Частота кадров: 25
Аудио: MPEG AAC Audio (mp4a). Каналы: стерео. Частота дискретизации: 48000 Гц
Доп. информация о субтитрах: Кодек: Text subtitle. Синхронизация субтитров alex-kin

MediaInfo

General
Complete name : H:\from_disk_c\cinema\съемки\Пострiл в ефiрi\Deadline\Deadline.mp4
Format : MPEG-4
Format profile : Base Media / Version 2
Codec ID : mp42
File size : 416 MiB
Duration : 11mn 13s
Overall bit rate : 5 177 Kbps
Encoded date : UTC 2012-03-21 23:33:32
Tagged date : UTC 2012-03-21 23:33:59
Video
ID : 1
Format : AVC
Format/Info : Advanced Video Codec
Format profile : Baseline@L4.0
Format settings, CABAC : No
Format settings, ReFrames : 2 frames
Codec ID : avc1
Codec ID/Info : Advanced Video Coding
Duration : 11mn 13s
Bit rate : 4 917 Kbps
Width : 1 920 pixels
Height : 1 080 pixels
Display aspect ratio : 16:9
Frame rate mode : Constant
Frame rate : 25.000 fps
Color space : YUV
Chroma subsampling : 4:2:0
Bit depth : 8 bits
Scan type : Progressive
Bits/(Pixel*Frame) : 0.095
Stream size : 395 MiB (95%)
Language : English
Encoded date : UTC 2012-03-21 23:33:31
Tagged date : UTC 2012-03-21 23:33:59
Color primaries : BT.709-5, BT.1361, IEC 61966-2-4, SMPTE RP177
Transfer characteristics : BT.709-5, BT.1361
Matrix coefficients : BT.709-5, BT.1361, IEC 61966-2-4 709, SMPTE RP177
Audio
ID : 2
Format : AAC
Format/Info : Advanced Audio Codec
Format profile : LC
Codec ID : 40
Duration : 11mn 13s
Bit rate mode : Constant
Bit rate : 256 Kbps
Channel(s) : 2 channels
Channel positions : Front: L R
Sampling rate : 48.0 KHz
Compression mode : Lossy
Stream size : 20.6 MiB (5%)
Language : English
Encoded date : UTC 2012-03-21 23:33:31
Tagged date : UTC 2012-03-21 23:33:59

Скриншот c названием фильма

Скриншоты





Субтитры

1
00:00:47,340 --> 00:00:48,812
В эфире последние новости:
2
00:00:48,983 --> 00:00:52,993
Молодые девушки изрешетили ножом
пожилую соседку и подожгли её квартиру.
3
00:00:53,341 --> 00:00:55,884
Убийцу выбирали,
вытягивая спичку.
4
00:00:55,889 --> 00:00:59,119
Пьяный мужчина с яростью
всадил в женщину нож 48 раз...
5
00:00:59,282 --> 00:01:02,561
...Собака разорвала на куски
выброшенного на мороз младенца.
6
00:01:02,653 --> 00:01:05,158
Местная жительница рядом с
собачьей будкой нашла
7
00:01:05,321 --> 00:01:07,308
объеденные фрагменты
тела младенца,
8
00:01:07,377 --> 00:01:10,267
из которых де-факто
осталась только голова.
9
00:01:10,350 --> 00:01:13,122
Был ли младенец живым,
когда его выбросили на мороз...
10
00:01:43,034 --> 00:01:46,676
Женщина завернула маленького сына
в одеяло и полураздетая вышла во двор,
11
00:01:46,786 --> 00:01:47,472
по словам родственников.
12
00:01:47,902 --> 00:01:50,899
Уже через несколько минут очевидцы
видели, как она прыгнула с моста.
13
00:01:51,030 --> 00:01:53,000
Но ребенка с ней не было.
14
00:01:53,324 --> 00:01:55,445
- Нормальная женщина,
на которую можна было положиться,
15
00:01:55,514 --> 00:01:58,054
которая думала о детях...
16
00:01:58,579 --> 00:02:03,054
...о семье. Вместе с мужем,
как говорится, заботились и строились...
17
00:02:04,130 --> 00:02:06,100
Своего четырёх...
18
00:02:51,471 --> 00:02:55,188
С помощью электрической болгарки
расчленила тело своего мужа
19
00:02:55,337 --> 00:02:57,605
и развезла части тела
с целью сокрытия
20
00:02:57,922 --> 00:03:00,187
совершенного преступления.
Развезла части тела
[teatrix.ru].t4186.torrent 
Торрент: Зарегистрирован [ 2015-10-07 15:57 ] · E7689A28DDF372A95CB2756434C395465489AABD

Скачать .torrent

Скачать

17 KB

Статус: проверено
Скачан: 0 раз
Размер: 416 MB
terms.php



Быстрый ответ

Имя:

      
Для отправки сообщений необходимо включить JavaScript
Показать сообщения:    

Текущее время: 09-Дек 10:49

Часовой пояс: UTC + 3


Вы можете начинать темы
Вы можете отвечать на сообщения
Вы не можете редактировать свои сообщения
Вы не можете удалять свои сообщения
Вы не можете голосовать в опросах
Вы не можете прикреплять файлы к сообщениям
Вы можете скачивать файлы