Фильмы Кеннета Энгера / The films of Kenneth Anger (Кеннет Энгер / Kenneth Anger) [1947-2002, США, авангард, BDRip 720p]


Статистика раздачи [Обновить пиров]
Размер:  19.53 GB   |    Зарегистрирован:  1 год 1 месяц   |    Скачан:  0 раз

Полного источника не было: Никогда

 
   
 
 
 

[Цитировать]

Фильмы Кеннета Энгера / The films of Kenneth Anger
Страна: США
Жанр: авангард
Год выпуска: 2009
Перевод: Не требуется
Cубтитры: нет
Режиссер: Кеннет Энгер / Kenneth Anger
Описание: Волшебник от кинематографии, легендарный провокатор, автор знаменитой книги "Голливудский Вавилон" и создатель некоторых самых поразительных и прекрасных работ в истории кино, Кеннет Энгер является исключительной фигурой в послевоенной американской культуре.
Он послужил источником вдохновения для таких режиссёров как Мартин Скорцезе, Райнер Вернер Фассбиндер и Дэвид Линч. От Энди Уорхола до MTV работы Энгера работают как талисманы - универсальные символы, объединяющие легенды, мистификации и ритуалы в одну силу, дающую кино магическую власть.
- Fireworks (1947, камера 16 мм, 15 минут, ч/б)
- Puce Moment (1949, камера 16 мм, 6 минут, цветной)
- Rabbit's Moon (1950, камера 35 мм, редкая оригинальная 16-минутная версия, тонированный ч/б)
- Eaux d'Artifice (1953, камера 16мм, тонированный ч/б)
- Inauguration of the Pleasure Dome (1954, камера 16 мм, 38 минут, цветной)
- Scorpio Rising (1964, камера 16 мм, 28 минут, цветной)
- Kustom Kar Kommandos (1965, камера 16 мм, 3 минуты, цветной )
- Invocation of My Demon Brother (1969, камера 16 мм, 11 минут, цветной)
- Rabbit's Moon (версия 1979, камера 35 мм, 7 минут, тонированный ч/б)
- Lucifer Rising (1981, камера 16 мм, 28 минут, цветной)
- The Man We Want to Hang (2002, 14 минут, цветной)
Доп. информация: Данный BDrip сделан с Blu-ray диска (Full HD 1080p)
Сэмпл: http://ifolder.ru/29980511
Тип релиза: BDRip 720p
Контейнер: MKV
Видео: MPEG4 Video (H264) 1280x720 23.976fps VBR ~15Mbps
Аудио: Dolby AC3 48000Hz 192kbps stereo

MediaInfo Fireworks.mkv

General
Complete name : 01-Fireworks.mkv
Format : Matroska
File size : 1.60 GiB
Duration : 15mn 3s
Overall bit rate : 15.2 Mbps
Encoded date : UTC 2012-04-16 12:21:16
Writing application : mkvmerge v5.1.0 ('And so it goes') built on Nov 28 2011 23:58:28
Writing library : libebml v1.2.3 + libmatroska v1.3.0
Video
ID : 1
Format : AVC
Format/Info : Advanced Video Codec
Format profile : High@L4.1
Format settings, CABAC : Yes
Format settings, ReFrames : 4 frames
Muxing mode : Container profile=Unknown@4.1
Codec ID : V_MPEG4/ISO/AVC
Duration : 15mn 3s
Bit rate mode : Variable
Bit rate : 14.7 Mbps
Maximum bit rate : 20.0 Mbps
Width : 1 280 pixels
Height : 720 pixels
Display aspect ratio : 16:9
Frame rate : 23.976 fps
Color space : YUV
Chroma subsampling : 4:2:0
Bit depth : 8 bits
Scan type : Progressive
Bits/(Pixel*Frame) : 0.665
Stream size : 1.55 GiB (97%)
Color primaries : BT.709-5, BT.1361, IEC 61966-2-4, SMPTE RP177
Transfer characteristics : BT.709-5, BT.1361
Matrix coefficients : BT.709-5, BT.1361, IEC 61966-2-4 709, SMPTE RP177
Audio
ID : 2
Format : AC-3
Format/Info : Audio Coding 3
Mode extension : ME (music and effects)
Codec ID : A_AC3
Duration : 15mn 3s
Bit rate mode : Constant
Bit rate : 192 Kbps
Channel(s) : 2 channels
Channel positions : Front: L R
Sampling rate : 48.0 KHz
Bit depth : 16 bits
Stream size : 20.7 MiB (1%)

Скриншоты

Использованный софт:
Пережатие 1080->720: ProCoder 3
Димуксинг: tsmuxer
Кодирование WAV->AC3: Sony Vegas 8
Ремуксинг в MKV: MKVToolNix

Скриншоты настроек софта

Сравнение скриншотов рипа с оригиналом

orig: rip: orig: rip: orig: rip:
[teatrix.ru].t4189.torrent 
Торрент: Зарегистрирован [ 2015-10-07 15:57 ] · E4B2651CC57C89E4675BD98B36C57774DBA35CE2

Скачать .torrent

Скачать

50 KB

Статус: проверено
Скачан: 0 раз
Размер: 19.53 GB
terms.php



Быстрый ответ

Имя:

      
Для отправки сообщений необходимо включить JavaScript
Показать сообщения:    

Текущее время: 05-Дек 15:31

Часовой пояс: UTC + 3


Вы можете начинать темы
Вы можете отвечать на сообщения
Вы не можете редактировать свои сообщения
Вы не можете удалять свои сообщения
Вы не можете голосовать в опросах
Вы не можете прикреплять файлы к сообщениям
Вы можете скачивать файлы