Опьянённый собственной болезнью / Intoxicated by my illness (Стивен Двоскин / Stephen Dwoskin) [2001, США, драма, экспериментальный, DVDRip]


Статистика раздачи [Обновить пиров]
Размер:  419 MB   |    Зарегистрирован:  1 год 2 месяца   |    Скачан:  1 раз

Полного источника не было: 9 дней

 
   
 
 
 

[Цитировать]

Опьянённый собственной болезнью / Intoxicated by my illness
Страна: США
Жанр: драма, экспериментальный
Год выпуска: 2001
Продолжительность: 00:40:30
Перевод: Не требуется
Cубтитры: нет
Режиссер: Стивен Двоскин / Stephen Dwoskin
Описание: Боль, секс, смерть, желание, мужчина, женщина - таковы основные экспонаты музея фантазмов Стивена Двоскина, человека-киноаппарата, с детства прикованного к инвалидному креслу. "Опьянённый собственной болезнью" - предельно интимная киномедитация, в которой Двоскин заселяет пространство госпиталя фантомами Эроса.
Доп. информация: "Intoxicated by my illness" - название книги Анатоля Бройяра (Anatole Broyard), в которой автор пишет о своём опыте борьбы с раком.
Один из выпусков программы Кирилла Разлогова "От киноавангарда к видеоарту" посвящён Стивену Двоскину.
Качество видео: DVDRip
Формат видео: AVI
Видео: 608x448 (1.36:1), 25 fps, XviD build 46 ~1350 kbps avg, 0.20 bit/pixel
Аудио: 48 kHz, MPEG Layer 3, 1 ch, ~82.26 kbps avg

MediaInfo

Video
ID : 0
Format : MPEG-4 Visual
Format profile : Advanced Simple@L5
Format settings, BVOP : Yes
Format settings, QPel : No
Format settings, GMC : No warppoints
Format settings, Matrix : Default (MPEG)
Codec ID : XVID
Codec ID/Hint : XviD
Duration : 40mn 30s
Bit rate : 1 351 Kbps
Width : 608 pixels
Height : 448 pixels
Display aspect ratio : 4:3
Frame rate : 25.000 fps
Resolution : 8 bits
Colorimetry : 4:2:0
Scan type : Progressive
Bits/(Pixel*Frame) : 0.198
Stream size : 391 MiB (93%)
Writing library : XviD 1.1.2 (UTC 2006-11-01)
Audio
ID : 1
Format : MPEG Audio
Format version : Version 1
Format profile : Layer 3
Codec ID : 55
Codec ID/Hint : MP3
Duration : 40mn 30s
Bit rate mode : Variable
Bit rate : 82.3 Kbps
Minimum bit rate : 32.0 Kbps
Channel(s) : 1 channel
Sampling rate : 48.0 KHz
Stream size : 23.8 MiB (6%)
Alignment : Aligned on interleaves
Interleave, duration : 24 ms (0.60 video frame)
Interleave, preload duration : 224 ms
Writing library : LAME3.97b
Encoding settings : -m m -V 4 -q 3 -lowpass 17.5 --vbr-new -b 32

Скриншоты

[teatrix.ru].t4191.torrent 
Торрент: Зарегистрирован [ 2015-10-07 15:57 ] · 56D29C06FB9B6A00527A2A8C1EF5BD4B3E24C63C

Скачать .torrent

Скачать

17 KB

Статус: проверено
Скачан: 1 раз
Размер: 419 MB
terms.php



Быстрый ответ

Имя:

      
Для отправки сообщений необходимо включить JavaScript
Показать сообщения:    

Текущее время: 09-Дек 08:52

Часовой пояс: UTC + 3


Вы можете начинать темы
Вы можете отвечать на сообщения
Вы не можете редактировать свои сообщения
Вы не можете удалять свои сообщения
Вы не можете голосовать в опросах
Вы не можете прикреплять файлы к сообщениям
Вы можете скачивать файлы