Нефтеядные / Ропаки / Ropáci / Oil Gobblers (Jan Sverak / Ян Сверак) [1988, Чехословакия, Короткометражный, псевдодокументальный, комедия, SATRip] ambar002 Sub Rus


Статистика раздачи [Обновить пиров]
Размер:  180 MB   |    Зарегистрирован:  1 год 2 месяца   |    Скачан:  0 раз

Полного источника не было: Никогда

 
   
 
 
 

[Цитировать]

Нефтеядные / Ропаки / Ropáci / Oil Gobblers
Страна: Чехословакия
Жанр: Короткометражный, псевдодокументальный, комедия
Год выпуска: 1988
Продолжительность: 00:20:44
Перевод: Субтитры Доп. инфо о переводе ambar002
Cубтитры: русские
Режиссер: Jan Sverak / Ян Сверак
В ролях: Любомир Бенеш,
Иво Каспар,
Эмиль Недбал,
Иржи Немец.
Описание: Одна из первых лент Яна Сверака повествует нам о группе ученых, которые исследуют загадочную, ранее неизвестную науке форму жизни. В отличие от нас, людей, ухудшающаяся экология ни в коей мере не вредит этим существам, а напротив, в полной мере способствует их развитию...
Пожалуй, одна из самых оригинальных зарисовок, снятых когда-либо на более, чем серьёзную экологическую тему:)
Доп. информация: Рейтинг IMDB - 8,2 (302)
Качество видео: SATRip
Формат видео: AVI
Видео: DivX; MPEG-4 Low-Motion, 512x384 (1.33:1), 25 fps, 1070 kbps avg, 0.22 bit/pixel.
Аудио: MPEG Layer 3, 44.100 kHz, 130.15 kbps avg, 2 ch.
Отчет Медиаинфо:

скрытый текст

Format : AVI
Format/Info : Audio Video Interleave
File size : 180 MiB
Duration : 20mn 44s
Overall bit rate mode : Variable
Overall bit rate : 1 214 Kbps
Writing application : Nandub v1.0rc2
Writing library : Nandub build 1853/release
Video #0
ID : 0
Format : MPEG-4 Visual
Codec ID : DIV3
Codec ID/Hint : DivX 3 Low
Duration : 20mn 44s
Bit rate : 1 071 Kbps
Width : 512 pixels
Height : 384 pixels
Display aspect ratio : 4:3
Frame rate : 25.000 fps
Color space : YUV
Chroma subsampling : 4:2:0
Bit depth : 8 bits
Compression mode : Lossy
Bits/(Pixel*Frame) : 0.218
Stream size : 159 MiB (88%)
Audio #1
ID : 1
Format : MPEG Audio
Format version : Version 1
Format profile : Layer 3
Codec ID : 55
Codec ID/Hint : MP3
Duration : 20mn 44s
Bit rate mode : Variable
Bit rate : 130 Kbps
Minimum bit rate : 128 Kbps
Channel(s) : 2 channels
Sampling rate : 44.1 KHz
Compression mode : Lossy
Stream size : 19.3 MiB (11%)
Alignment : Aligned on interleaves
Interleave, duration : 26 ms (0.65 video frame)
Interleave, preload duration : 493 ms
Writing library : LAME3.92
Encoding settings : -m s -V 9 -q 5 -lowpass 11.2 --vbr-old -b 128
Формат субтитров: softsub (SRT)

скрытый текст

1
00:00:02,840 --> 00:00:05,080
В 1985 году
2
00:00:05,640 --> 00:00:09,450
Мы обнаружили
этот небольшой отпечаток в глине
3
00:00:09,780 --> 00:00:13,040
Наше открытие не вызвало
реакции в научном мире
4
00:00:13,250 --> 00:00:16,700
Но для нас этот слепок
имел особое значение
5
00:00:17,290 --> 00:00:21,000
Мы знали,
что находимся на правильном пути.
6
00:00:30,020 --> 00:00:32,440
НЕФТЕЯДНЫЕ
7
00:00:35,010 --> 00:00:37,250
Северная Чехия. 1987 год.
8
00:00:56,030 --> 00:00:58,460
Лучше всего путешествовать
в конце лета
9
00:00:58,850 --> 00:01:01,450
Днём уже не душно,
а ночи ещё тёплые
10
00:01:01,750 --> 00:01:04,620
Два года назад
мы отправились в путь с той же командой
11
00:01:04,830 --> 00:01:06,750
Иво Соукуп, доктор зоологии..
12
00:01:06,910 --> 00:01:09,030
..и доктор Любомир Бауэр, биохимик
13
00:01:09,080 --> 00:01:11,550
- Вы помните,
я показывал вам фотографии!...
14
00:01:12,510 --> 00:01:16,000
Остальные члены экспедиции -
это оператор Джирка Мрац и я
15
00:01:16,340 --> 00:01:18,540
...- И в конце концов
вы умрёте от рака....
16
00:01:26,020 --> 00:01:28,780
Мы вновь направляемся
на север Чехии
17
00:01:29,100 --> 00:01:34,100
потому что существ, питающихся нефтью
вряд ли можно отыскать в каком другом месте
18
00:01:34,300 --> 00:01:36,930
Этого животного
нет в учебниках по зоологии...
19
00:01:37,030 --> 00:01:40,730
...но есть публикации
в научной периодике...
20
00:01:41,000 --> 00:01:44,920
...в которых утверждается, что его предки
это заяц-русак и европейская выдра
21
00:01:45,190 --> 00:01:49,140
Доктор Соукуп один из немногих,
кто видел нефтеядных своими глазами
22
00:01:49,440 --> 00:01:54,000
По его мнению, у нефтеядных
был свой уникальный путь эволюции

Скриншот c названием фильма

Скриншоты

[teatrix.ru].t4193.torrent 
Торрент: Зарегистрирован [ 2015-10-07 15:57 ] · 7D728B725F0588C2467984E23970EF009258502C

Скачать .torrent

Скачать

15 KB

Статус: проверено
Скачан: 0 раз
Размер: 180 MB
terms.php



Быстрый ответ

Имя:

      
Для отправки сообщений необходимо включить JavaScript
Показать сообщения:    

Текущее время: 10-Дек 02:10

Часовой пояс: UTC + 3


Вы можете начинать темы
Вы можете отвечать на сообщения
Вы не можете редактировать свои сообщения
Вы не можете удалять свои сообщения
Вы не можете голосовать в опросах
Вы не можете прикреплять файлы к сообщениям
Вы можете скачивать файлы