Полено / The Log (Алексей Романов) [2012, Россия, игровой, короткометражный, драма, HDRip-AVC] Sub Eng + Original Rus


Статистика раздачи [Обновить пиров]
Размер:  230 MB   |    Зарегистрирован:  1 год 2 месяца   |    Скачан:  0 раз

Полного источника не было: Никогда

 
   
 
 
 

[Цитировать]

Полено / The Log
Страна: Россия
Жанр: игровой, короткометражный, драма
Год выпуска: 2012
Продолжительность: 00:12:07
Перевод: Не требуется
Cубтитры: английские неотключаемые
Оригинальная аудиодорожка: русский
Режиссер: Алексей Романов
В ролях: Андрей Родионов, Сергей Семериков, Екатерина Юркова
Описание: Одинокий человек находит в лесу полено, с которым у него возникают отношения по схеме «отец-сын». Человек проявляет огромное участие и терпение к бездушному существу, однако вскоре теряет веру и в предмет своей заботы, и в себя самого.
Доп. информация: Поэт и пресс-секретарь Музея современного искусства PERMM Андрей Родионов сыграл главную роль в короткометражном фильме пермского режиссера Алексея Романова "Полено". По словам Андрея Родионова, в фильме он играет отца, который внезапно нашел в лесу ребенка. Фильм снят по мотивам сказки "Приключения Буратино". Композитор фильма - Геннадий Широглазов.
Как сообщил Алексей Романов, съемки фильма прошли в Перми и в Краснокамске.
Английский хардсаб
Сэмпл: http://rghost.ru/36946257
Качество видео: HDRip-AVC
Формат видео: MP4
Видео: AVC 1280x720 16:9 24,000 кадра/сек 2499 Кбит/сек
Аудио: AAC 44,1 КГц 153 Кбит/сек стерео
Формат субтитров: hardsub (неотключаемые)

MediaInfo

Общее
Полное имя                               : C:\Users\Igor\Documents\Раздачи\ПОЛЕНО (The Log).mp4
Формат                                   : MPEG-4
Профиль формата                          : Base Media
Идентификатор кодека                     : isom
Размер файла                             : 230 Мбайт
Продолжительность                        : 12 м.
Режим общего битрейта                    : Переменный
Общий поток                              : 2655 Кбит/сек
Дата кодирования                         : UTC 2012-02-15 06:16:47
Дата пометки                             : UTC 2012-02-16 06:16:51
Видео
Идентификатор                            : 1
Формат                                   : AVC
Формат/Информация                        : Advanced Video Codec
Профиль формата                          : High@L3.1
Параметр CABAC формата                   : Да
Параметр ReFrames формата                : 4 кадра
Идентификатор кодека                     : avc1
Идентификатор кодека/Информация          : Advanced Video Coding
Продолжительность                        : 12 м.
Битрейт                                  : 2499 Кбит/сек
Максимальный битрейт                     : 8319 Кбит/сек
Ширина                                   : 1280 пикселей
Высота                                   : 720 пикселей
Соотношение сторон                       : 16:9
Режим частоты кадров                     : Постоянный
Частота кадров                           : 24,000 кадра/сек
Цветовое пространство                    : YUV
Субдискретизация насыщенности            : 4:2:0
Битовая глубина                          : 8 бит
Тип развёртки                            : Прогрессивная
Бит/(Пиксели*Кадры)                      : 0.113
Размер потока                            : 217 Мбайт (94%)
Библиотека кодирования                   : Vimeo Encoder
Дата кодирования                         : UTC 2012-02-15 06:16:47
Дата пометки                             : UTC 2012-02-15 06:16:50
Аудио
Идентификатор                            : 2
Формат                                   : AAC
Формат/Информация                        : Advanced Audio Codec
Профиль формата                          : LC
Идентификатор кодека                     : 40
Продолжительность                        : 12 м.
Вид битрейта                             : Переменный
Битрейт                                  : 153 Кбит/сек
Максимальный битрейт                     : 205 Кбит/сек
Каналы                                   : 2 канала
Расположение каналов                     : Front: L R
Частота                                  : 44,1 КГц
Метод сжатия                             : С потерями
Размер потока                            : 13,3 Мбайт (6%)
Дата кодирования                         : UTC 2012-02-15 06:16:49
Дата пометки                             : UTC 2012-02-15 06:16:50

Скриншот c названием фильма

Скриншоты

[teatrix.ru].t4200.torrent 
Торрент: Зарегистрирован [ 2015-10-07 15:57 ] · 4E75417CBB8A4224527FC86EEAD13ED1953AD005

Скачать .torrent

Скачать

19 KB

Статус: проверено
Скачан: 0 раз
Размер: 230 MB
terms.php



Быстрый ответ

Имя:

      
Для отправки сообщений необходимо включить JavaScript
Показать сообщения:    

Текущее время: 09-Дек 08:52

Часовой пояс: UTC + 3


Вы можете начинать темы
Вы можете отвечать на сообщения
Вы не можете редактировать свои сообщения
Вы не можете удалять свои сообщения
Вы не можете голосовать в опросах
Вы не можете прикреплять файлы к сообщениям
Вы можете скачивать файлы