Кусочек волшебства / For intérieur (Патрик Пубель / Patrick Poubel) [2004, Франция, Короткий метр, TVRip] DVO


Статистика раздачи [Обновить пиров]
Размер:  81 MB   |    Зарегистрирован:  1 год 1 месяц   |    Скачан:  0 раз

Полного источника не было: Никогда

 
   
 
 
 

[Цитировать]

Кусочек волшебства / For intérieur
Страна: Франция
Жанр: Короткий метр
Год выпуска: 2004
Продолжительность: 00:08:40
Перевод: Любительский (двухголосый закадровый) || озвучка: Гаврюша и Кошкин.
Cубтитры: немецкие
Режиссер: Патрик Пубель / Patrick Poubel
В ролях: Бернард Халлер, Максенс Перрин, Наталия Дончева, Бернард Бланкан, Патрик Зард и др.
Описание: История о маленьком мальчике по имени Крике и его близком друге - чудаковатом дедушке Мими, который коллекционирует воспоминания в жестяных банках...
Сэмпл: http://multi-up.com/664686
Качество видео: TVRip (взят из сети)
Формат видео: AVI
Видео: XviD, 704x336, 2.095, 25.000 fps, 1 098 Kbps
Аудио: MP3, 44.1 KHz, 192 Kbps, 2 channels
Формат субтитров: hardsub (неотключаемые)

MediaInfo

General
Complete name : D:\ВИДЕО\На торрент\For Interieur (2004) rus.avi
Format : AVI
Format/Info : Audio Video Interleave
File size : 80.6 MiB
Duration : 8mn 40s
Overall bit rate : 1 299 Kbps
Video
ID : 0
Format : MPEG-4 Visual
Format profile : Advanced Simple@L5
Format settings, BVOP : No
Format settings, QPel : No
Format settings, GMC : No warppoints
Format settings, Matrix : Default (MPEG)
Codec ID : XVID
Codec ID/Hint : XviD
Duration : 8mn 40s
Bit rate : 1 098 Kbps
Width : 704 pixels
Height : 336 pixels
Display aspect ratio : 2.095
Frame rate : 25.000 fps
Color space : YUV
Chroma subsampling : 4:2:0
Bit depth : 8 bits
Scan type : Progressive
Compression mode : Lossy
Bits/(Pixel*Frame) : 0.186
Stream size : 68.1 MiB (84%)
Writing library : XviD 62
Audio
ID : 1
Format : MPEG Audio
Format version : Version 1
Format profile : Layer 3
Codec ID : 55
Codec ID/Hint : MP3
Duration : 8mn 40s
Bit rate mode : Constant
Bit rate : 192 Kbps
Channel(s) : 2 channels
Sampling rate : 44.1 KHz
Compression mode : Lossy
Stream size : 11.9 MiB (15%)
Alignment : Split accross interleaves
Interleave, duration : 42 ms (1.04 video frame)
Writing library : LAMELAME_MAJOR_VERSI

Скриншот c названием фильма

Скриншоты

[teatrix.ru].t4202.torrent 
Торрент: Зарегистрирован [ 2015-10-07 15:57 ] · 364FC297C15B2743A21CAF829F10F0BBF31E0F8F

Скачать .torrent

Скачать

13 KB

Статус: проверено
Скачан: 0 раз
Размер: 81 MB
terms.php



Быстрый ответ

Имя:

      
Для отправки сообщений необходимо включить JavaScript
Показать сообщения:    

Текущее время: 04-Дек 23:24

Часовой пояс: UTC + 3


Вы можете начинать темы
Вы можете отвечать на сообщения
Вы не можете редактировать свои сообщения
Вы не можете удалять свои сообщения
Вы не можете голосовать в опросах
Вы не можете прикреплять файлы к сообщениям
Вы можете скачивать файлы