Цикл / Cyclus (Валерия Мурыса) [2012, Россия, арт-хаус, HDRip]


Статистика раздачи [Обновить пиров]
Размер:  298 MB   |    Зарегистрирован:  1 год 3 месяца   |    Скачан:  0 раз

Полного источника не было: Никогда

 
   
 
 
 

[Цитировать]

Цикл / Cyclus
Страна: Россия
Жанр: анимация
Год выпуска: 2012
Продолжительность: 00:20:33
Перевод: Не требуется
Cубтитры: нет
Режиссер: Валерия Мурыса
Описание:
пост-апокалиптическая сказка повествующая о путешествиях и поисках пары Ног, встреч с представителями остатков общества, буквально мутировавшими до симбиоза со своими истинными желаниями и ценностями.
Музыка: Haus Arafna, Current 93
Качество видео: HDRip
Формат видео: MP4
Видео: MPEG4 Video (H264) 1280x720 25.00fps 1 677 Kbps
Аудио: Audio: AAC 48000Hz stereo 317 Kbps

Дополнительная информация

Сценарист/Оператор - Valeria Myrusso
Монтаж - Alexander Donov
Музыка:
Haus Arafna:
The Woman You Are
You
Anamia
Colony Collapse
Current 93:
Where The Long Shadows Fall

MediaInfo

General
Complete name : H:\Users\Gluka\Videos\cyclus.mp4
Format : MPEG-4
Format profile : Base Media / Version 2
Codec ID : mp42
File size : 298 MiB
Duration : 20mn 33s
Overall bit rate mode : Variable
Overall bit rate : 2 030 Kbps
Encoded date : UTC 2012-02-24 19:48:56
Tagged date : UTC 2012-02-24 19:48:56
©TIM : 00:00:00:00
©TSC : 25
©TSZ : 1
Video
ID : 1
Format : AVC
Format/Info : Advanced Video Codec
Format profile : Main@L3.2
Format settings, CABAC : Yes
Format settings, ReFrames : 3 frames
Format settings, GOP : M=4, N=33
Codec ID : avc1
Codec ID/Info : Advanced Video Coding
Duration : 20mn 33s
Bit rate : 1 677 Kbps
Width : 1 280 pixels
Height : 720 pixels
Display aspect ratio : 16:9
Frame rate mode : Constant
Frame rate : 25.000 fps
Standard : NTSC
Color space : YUV
Chroma subsampling : 4:2:0
Bit depth : 8 bits
Scan type : Progressive
Bits/(Pixel*Frame) : 0.073
Stream size : 247 MiB (83%)
Language : English
Encoded date : UTC 2012-02-24 19:48:56
Tagged date : UTC 2012-02-24 19:48:56
Audio
ID : 2
Format : AAC
Format/Info : Advanced Audio Codec
Format profile : LC
Codec ID : 40
Duration : 20mn 33s
Bit rate mode : Variable
Bit rate : 317 Kbps
Maximum bit rate : 411 Kbps
Channel(s) : 2 channels
Channel positions : Front: L R
Sampling rate : 48.0 KHz
Compression mode : Lossy
Stream size : 46.7 MiB (16%)
Language : English
Encoded date : UTC 2012-02-24 19:48:56
Tagged date : UTC 2012-02-24 19:48:56
Material_Duration : 1233323
Material_StreamSize : 48928223

Скриншот c названием фильма

Скриншоты



[teatrix.ru].t4205.torrent 
Торрент: Зарегистрирован [ 2015-10-07 15:57 ] · 520DC7E870B082E45F9FC8AF8945286FB3BF44BD

Скачать .torrent

Скачать

12 KB

Статус: проверено
Скачан: 0 раз
Размер: 298 MB
terms.php



Быстрый ответ

Имя:

      
Для отправки сообщений необходимо включить JavaScript
Показать сообщения:    

Текущее время: 20-Янв 16:54

Часовой пояс: UTC + 3


Вы можете начинать темы
Вы можете отвечать на сообщения
Вы не можете редактировать свои сообщения
Вы не можете удалять свои сообщения
Вы не можете голосовать в опросах
Вы не можете прикреплять файлы к сообщениям
Вы можете скачивать файлы