Под окнами ночного города (Егор Баранов) [2010, Россия, драма, короткий метр, DVDRip-AVC] Original Rus


Статистика раздачи [Обновить пиров]
Размер:  173 MB   |    Зарегистрирован:  1 год 2 месяца   |    Скачан:  0 раз

Полного источника не было: Никогда

 
   
 
 
 

[Цитировать]

Под окнами ночного города- -Страна: РФ
Жанр: драма
Год выпуска: 2010
Продолжительность: 11 минут
Оригинальная аудиодорожка: русский
-Режиссер: Егор Баранов-В ролях: Александр Новиков, Александр Кудин, Егор Баранов-Оператор: Юрий Коробейников-Описание: Частный случай под окнами ночного города.-Качество видео: DVDRip-AVC
Формат видео: MP4
Видео: 720*576 => 1050*576, 25.000 fps, AVC 1995 kbps avg 0.192 bit/pixel
Аудио: AAC 48 kHz, 2/0 (L,R) ch, 192 Kbps
-

MediaInfo

General
Complete name : G:\Bugaga\пашечка\restoracia\Pod_oknami.mp4
Format : MPEG-4
Format profile : Base Media / Version 2
Codec ID : mp42
File size : 173 MiB
Duration : 11mn 4s
Overall bit rate : 2 188 Kbps
Encoded date : UTC 2012-02-08 23:02:57
Tagged date : UTC 2012-02-08 23:02:57
©TIM : 00:00:00:00
©TSC : 25
©TSZ : 1
Video
ID : 1
Format : AVC
Format/Info : Advanced Video Codec
Format profile : Main@L3.1
Format settings, CABAC : Yes
Format settings, ReFrames : 3 frames
Format settings, GOP : M=4, N=33
Codec ID : avc1
Codec ID/Info : Advanced Video Coding
Duration : 11mn 4s
Bit rate : 1 995 Kbps
Width : 720 pixels
Height : 576 pixels
Display aspect ratio : 16:9
Frame rate mode : Constant
Frame rate : 25.000 fps
Standard : PAL
Color space : YUV
Chroma subsampling : 4:2:0
Bit depth : 8 bits
Scan type : Progressive
Bits/(Pixel*Frame) : 0.192
Stream size : 158 MiB (91%)
Language : English
Encoded date : UTC 2012-02-08 23:02:57
Tagged date : UTC 2012-02-08 23:02:57
Material_Duration : 664440
Material_StreamSize : 165665139
Material_FrameCount : 16611
Audio
ID : 2
Format : AAC
Format/Info : Advanced Audio Codec
Format profile : LC
Codec ID : 40
Duration : 11mn 4s
Bit rate mode : Variable
Bit rate : 192 Kbps
Maximum bit rate : 291 Kbps
Channel(s) : 2 channels
Channel positions : Front: L R
Sampling rate : 48.0 KHz
Compression mode : Lossy
Stream size : 15.0 MiB (9%)
Language : English
Encoded date : UTC 2012-02-08 23:02:57
Tagged date : UTC 2012-02-08 23:02:57
Material_Duration : 664491
Material_StreamSize : 15729740

Скриншоты




Короткометражные фильмы Егора Баранова (авторские раздачи)

Зёрна
Под окнами ночного города
Не случилось
Смотри как умирают дети
[teatrix.ru].t4207.torrent 
Торрент: Зарегистрирован [ 2015-10-07 15:57 ] · 8E872A33099A12AA0FC34115F9C31BD99A915C6E

Скачать .torrent

Скачать

14 KB

Статус: проверено
Скачан: 0 раз
Размер: 173 MB
terms.php



Быстрый ответ

Имя:

      
Для отправки сообщений необходимо включить JavaScript
Показать сообщения:    

Текущее время: 09-Дек 22:23

Часовой пояс: UTC + 3


Вы можете начинать темы
Вы можете отвечать на сообщения
Вы не можете редактировать свои сообщения
Вы не можете удалять свои сообщения
Вы не можете голосовать в опросах
Вы не можете прикреплять файлы к сообщениям
Вы можете скачивать файлы