Не случилось (Егор Баранов) [2010, Россия, драма, короткий метр, DVDRip-AVC] Original Rus


Статистика раздачи [Обновить пиров]
Размер:  362 MB   |    Зарегистрирован:  1 год 1 месяц   |    Скачан:  1 раз

Полного источника не было: 8 месяцев 18 дней

 
   
 
 
 

[Цитировать]

Не случилось- -Страна: РФ
Жанр: молодежная драма, комедия
Год выпуска: 2010
Продолжительность: 20 минут
Оригинальная аудиодорожка: русский
-Режиссер: Егор Баранов-В ролях: Олег Лабозин, Дина Штурманова, Сергей Плотников, Евгений Костькин, Елена Заикина, Елена Сердюкова-Оператор: Юрий Коробейников-Описание: Костя с отцом переехали в новую квартиру. Соседка по площадке проявляет к Косте интерес. Да он и сам не против наладить с ней отношения, но этому все время что-то мешает.-Качество видео: DVDRip-AVC
Формат видео: MP4
Видео: 720*576=> 1050*576, 25.000 fps, AVC, 2322 kbps avg 0.224 bit/pixel
Аудио: AAC 48 kHz, 2/0 (L,R) ch, 192 Kbps
-

MediaInfo

General
Complete name : G:\Bugaga\пашечка\restoracia\Ne sluchilos.mp4
Format : MPEG-4
Format profile : Base Media / Version 2
Codec ID : mp42
File size : 362 MiB
Duration : 20mn 0s
Overall bit rate : 2 515 Kbps
Encoded date : UTC 2012-02-09 03:55:33
Tagged date : UTC 2012-02-09 03:55:33
©TIM : 00:00:00:00
©TSC : 25
©TSZ : 1
Video
ID : 1
Format : AVC
Format/Info : Advanced Video Codec
Format profile : Main@L3.1
Format settings, CABAC : Yes
Format settings, ReFrames : 3 frames
Codec ID : avc1
Codec ID/Info : Advanced Video Coding
Duration : 20mn 8s
Bit rate : 2 322 Kbps
Width : 720 pixels
Height : 576 pixels
Display aspect ratio : 16:9
Frame rate mode : Constant
Frame rate : 25.000 fps
Standard : PAL
Color space : YUV
Chroma subsampling : 4:2:0
Bit depth : 8 bits
Scan type : Interlaced
Scan order : Bottom Field First
Bits/(Pixel*Frame) : 0.224
Stream size : 334 MiB (92%)
Language : English
Encoded date : UTC 2012-02-09 03:55:33
Tagged date : UTC 2012-02-09 03:55:33
Material_Duration : 1208040
Material_StreamSize : 350673256
Material_FrameCount : 30201
Audio
ID : 2
Format : AAC
Format/Info : Advanced Audio Codec
Format profile : LC
Codec ID : 40
Duration : 20mn 8s
Bit rate mode : Variable
Bit rate : 192 Kbps
Maximum bit rate : 291 Kbps
Channel(s) : 2 channels
Channel positions : Front: L R
Sampling rate : 48.0 KHz
Compression mode : Lossy
Stream size : 27.3 MiB (8%)
Language : English
Encoded date : UTC 2012-02-09 03:55:33
Tagged date : UTC 2012-02-09 03:55:33
Material_Duration : 1208085
Material_StreamSize : 28597645

Скриншоты





Короткометражные фильмы Егора Баранова (авторские раздачи)

Зёрна
Под окнами ночного города
Не случилось
Смотри как умирают дети
[teatrix.ru].t4208.torrent 
Торрент: Зарегистрирован [ 2015-10-07 15:57 ] · 0B1261CEFAE8B1498967112C0ACC3A17F3B5FFB9

Скачать .torrent

Скачать

15 KB

Статус: проверено
Скачан: 1 раз
Размер: 362 MB
terms.php



Быстрый ответ

Имя:

      
Для отправки сообщений необходимо включить JavaScript
Показать сообщения:    

Текущее время: 06-Дек 20:56

Часовой пояс: UTC + 3


Вы можете начинать темы
Вы можете отвечать на сообщения
Вы не можете редактировать свои сообщения
Вы не можете удалять свои сообщения
Вы не можете голосовать в опросах
Вы не можете прикреплять файлы к сообщениям
Вы можете скачивать файлы