Зёрна (Егор Баранов) [2008, Россия, драма, короткий метр, DVDRip-AVC] Original Rus


Статистика раздачи [Обновить пиров]
Размер:  542 MB   |    Зарегистрирован:  1 год 1 месяц   |    Скачан:  2 раза

Полного источника не было: 1 месяц 8 дней

 
   
 
 
 

[Цитировать]

Зёрна- -Страна: РФ
Жанр: молодежная драма, комедия
Год выпуска: 2008
Продолжительность: 34 минуты 39 секунд
Оригинальная аудиодорожка: русский
-Режиссер: Егор Баранов-В ролях: Олег Ягодин, Тамара Зимина, Василина Маковцева, Костя Руденко, Слава Романов, Сергей Самохин-Оператор: Юрий Коробейников-Описание: У Тохи сплошные проблемы - с друзьями, с девушкой, с институтом, с родителями, с милицией и прохожими. Выход, далеко не самый лучший, он находит не сразу.-Качество видео: DVDRip-AVC
Формат видео: MP4
Видео: 720*576=> 1050*576, 25.000 fps, AVC, 2 187 kbps avg 0.192 bit/pixel
Аудио: AAC 48 kHz, 2/0 (L,R) ch, ~ 192 Kbps
-

MediaInfo

General
Complete name : G:\Bugaga\пашечка\restoracia\Zerna.mp4
Format : MPEG-4
Format profile : Base Media / Version 2
Codec ID : mp42
File size : 542 MiB
Duration : 34mn 39s
Overall bit rate : 2 187 Kbps
Encoded date : UTC 2012-02-09 00:15:20
Tagged date : UTC 2012-02-09 00:15:20
©TIM : 00:00:00:00
©TSC : 25
©TSZ : 1
Video
ID : 1
Format : AVC
Format/Info : Advanced Video Codec
Format profile : Main@L3.1
Format settings, CABAC : Yes
Format settings, ReFrames : 3 frames
Format settings, GOP : M=4, N=33
Codec ID : avc1
Codec ID/Info : Advanced Video Coding
Duration : 34mn 39s
Bit rate : 1 994 Kbps
Width : 720 pixels
Height : 576 pixels
Display aspect ratio : 16:9
Frame rate mode : Constant
Frame rate : 25.000 fps
Standard : PAL
Color space : YUV
Chroma subsampling : 4:2:0
Bit depth : 8 bits
Scan type : Progressive
Bits/(Pixel*Frame) : 0.192
Stream size : 494 MiB (91%)
Language : English
Encoded date : UTC 2012-02-09 00:15:20
Tagged date : UTC 2012-02-09 00:15:20
Material_Duration : 2079840
Material_StreamSize : 518374143
Material_FrameCount : 51996
Audio
ID : 2
Format : AAC
Format/Info : Advanced Audio Codec
Format profile : LC
Codec ID : 40
Duration : 34mn 39s
Bit rate mode : Variable
Bit rate : 192 Kbps
Maximum bit rate : 305 Kbps
Channel(s) : 2 channels
Channel positions : Front: L R
Sampling rate : 48.0 KHz
Compression mode : Lossy
Stream size : 47.0 MiB (9%)
Language : English
Encoded date : UTC 2012-02-09 00:15:20
Tagged date : UTC 2012-02-09 00:15:20
Material_Duration : 2079893
Material_StreamSize : 49234975

Скриншоты




Короткометражные фильмы Егора Баранова (авторские раздачи)

Зёрна
Под окнами ночного города
Не случилось
Смотри как умирают дети
[teatrix.ru].t4209.torrent 
Торрент: Зарегистрирован [ 2015-10-07 15:57 ] · 1630A98276C7C170405A80036C68D2E98C8CBDE8

Скачать .torrent

Скачать

11 KB

Статус: проверено
Скачан: 2 раз
Размер: 542 MB
terms.php



Быстрый ответ

Имя:

      
Для отправки сообщений необходимо включить JavaScript
Показать сообщения:    

Текущее время: 05-Дек 03:23

Часовой пояс: UTC + 3


Вы можете начинать темы
Вы можете отвечать на сообщения
Вы не можете редактировать свои сообщения
Вы не можете удалять свои сообщения
Вы не можете голосовать в опросах
Вы не можете прикреплять файлы к сообщениям
Вы можете скачивать файлы