Происшествие в банке / Handelse vid bank (Рубен Остлунд / Ruben Östlund) [2009, Шведция, короткометражка, DVDRip] Sub Rus + Original Swe


Статистика раздачи [Обновить пиров]
Размер:  157 MB   |    Зарегистрирован:  1 год 2 месяца   |    Скачан:  0 раз

Полного источника не было: Никогда

 
   
 
 
 

[Цитировать]

Происшествие в банке / Handelse vid bank
Страна: Шведция
Жанр: короткометражка
Год выпуска: 2009
Продолжительность: 00:11:57
Перевод: Субтитры
Cубтитры: русские
Оригинальная аудиодорожка: шведский
Режиссер: Рубен Остлунд / Ruben Östlund
В ролях: Лейф Эдлунд,Ларс Меллин,Баходор Фолади,Расмус Линдгрен
Описание: Двое друзей случайно становятся свидетелями неудачного ограбления банка и решают за снять его.
Доп. информация: Победитель Берлинского Фестиваля 2010 в категории лучший короткометражный фильм фильм.
Весь фильм снят одним кадром.
Мой перевод.
Качество видео: DVDRip
Формат видео: AVI
Видео: Xvid 688x384 25.00fps 1640kbps [Video 0]
Аудио: Dolby AC3 48000Hz stereo 192kbps [Audio 1]
Формат субтитров: softsub (SRT)

MediaInfo

ormat : AVI
Format/Info : Audio Video Interleave
File size : 157 MiB
Duration : 11mn 57s
Overall bit rate : 1 841 Kbps
Writing application : VirtualDubMod 1.5.10.2 (build 2540/release)
Writing library : VirtualDubMod build 2540/release
Video
ID : 0
Format : MPEG-4 Visual
Format profile : Advanced Simple@L5
Format settings, BVOP : Yes
Format settings, QPel : No
Format settings, GMC : No warppoints
Format settings, Matrix : Default (MPEG)
Codec ID : XVID
Codec ID/Hint : XviD
Duration : 11mn 57s
Bit rate : 1 640 Kbps
Width : 688 pixels
Height : 384 pixels
Display aspect ratio : 16:9
Frame rate : 25.000 fps
Color space : YUV
Chroma subsampling : 4:2:0
Bit depth : 8 bits
Scan type : Progressive
Bits/(Pixel*Frame) : 0.248
Stream size : 140 MiB (89%)
Writing library : XviD 1.2.1 (UTC 2008-12-04)
Audio
ID : 1
Format : AC-3
Format/Info : Audio Coding 3
Mode extension : CM (complete main)
Codec ID : 2000
Duration : 11mn 54s
Bit rate mode : Constant
Bit rate : 192 Kbps
Channel(s) : 2 channels
Channel positions : Front: L R
Sampling rate : 48.0 KHz
Bit depth : 16 bits
Video delay : 16ms
Stream size : 16.4 MiB (10%)
Alignment : Split accross interleaves
Interleave, duration : 40 ms (1.00 video frame)
Interleave, preload duration : 500 ms

Скриншоты


Пример субтитров

34
00:04:00,769 --> 00:04:04,808
- Какого черта?
- Хенрик,Хенрик...
35
00:04:06,569 --> 00:04:09,447
Какого черта они делают?
36
00:04:09,529 --> 00:04:11,645
Туда!Это там!
37
00:04:11,729 --> 00:04:15,688
- Серьезно...
- Эй,это там!
38
00:04:15,769 --> 00:04:17,760
Что происходит?
39
00:05:28,409 --> 00:05:31,162
Может нам не следует здесь стоять...
40
00:05:31,249 --> 00:05:34,958
Ты это снимаешь?Увеличь...
41
00:05:35,049 --> 00:05:38,678
- Серьезно,они же стреляют.
- Нет в нас.
[teatrix.ru].t4222.torrent 
Торрент: Зарегистрирован [ 2015-10-07 15:57 ] · 60C200D3060E5F6D0DF0CD0BD9B589E6D1701039

Скачать .torrent

Скачать

13 KB

Статус: проверено
Скачан: 0 раз
Размер: 157 MB
terms.php



Быстрый ответ

Имя:

      
Для отправки сообщений необходимо включить JavaScript
Показать сообщения:    

Текущее время: 11-Дек 13:02

Часовой пояс: UTC + 3


Вы можете начинать темы
Вы можете отвечать на сообщения
Вы не можете редактировать свои сообщения
Вы не можете удалять свои сообщения
Вы не можете голосовать в опросах
Вы не можете прикреплять файлы к сообщениям
Вы можете скачивать файлы